<?xml version="1.0" standalone="no"?>
<!DOCTYPE svg PUBLIC "-//W3C//DTD SVG 1.1//EN" "http://www.w3.org/Graphics/SVG/1.1/DTD/svg11.dtd">
<svg xmlns="http://www.w3.org/2000/svg">
<defs >
<font id="Mulish" horiz-adv-x="581" ><font-face
    font-family="Mulish Light"
    units-per-em="1000"
    panose-1="0 0 0 0 0 0 0 0 0 0"
    ascent="1005"
    descent="-250"
    alphabetic="0" />
<glyph unicode=" " glyph-name="space" horiz-adv-x="255" />
<glyph unicode="!" glyph-name="exclam" horiz-adv-x="219" d="M78 173L144 705H220L117 173H78ZM27 0L41 86H126L112 0H27Z" />
<glyph unicode="&quot;" glyph-name="quotedbl" horiz-adv-x="366" d="M115 434L141 705H214L156 434H115ZM270 434L296 705H369L311 434H270Z" />
<glyph unicode="#" glyph-name="numbersign" horiz-adv-x="600" d="M50 0L117 187H16L24 236H134L222 477H83L90 527H239L303 705H356L292 527H462L526 705H580L515 527H616L609 477H498L410 236H550L542 187H393L326 0H272L339 187H170L104 0H50ZM187 236H357L445
477H275L187 236Z" />
<glyph unicode="$" glyph-name="dollar" horiz-adv-x="600" d="M225 -115L244 11L259 -4Q216 -2 173 6T91 31T25 72L55 120Q97 88 148 70T279 52Q363 52 412 88T472 180Q480 231 452 262T350 306L258 323Q201 333 165 359T115 425T109 518Q118 576 152 618T241
683T364 709L353 696L373 820H427L407 696L399 708Q450 707 500 687T584 630L553 582Q520 617 475 635T368 653Q287 653 233 616T168 513Q159 459 184 425T276 379L368 362Q463 346 504 299T532 175Q520 98 453 50T281 -4L299 12L279 -115H225Z" />
<glyph unicode="%" glyph-name="percent" horiz-adv-x="931" d="M248 0H187L715 705H777L248 0ZM241 282Q160 282 120 340T96 508Q111 603 162 658T291 713Q371 713 411 654T435 488Q420 392 370 337T241 282ZM242 329Q296 329 331 371T381 497Q394 579 368 622T288
666Q235 666 200 624T152 499Q139 416 164 373T242 329ZM673 -8Q593 -8 552 50T529 218Q544 313 595 368T723 423Q803 423 844 364T868 198Q852 102 802 47T673 -8ZM675 39Q729 39 764 81T813 207Q826 289 801 332T721 376Q668 376 633 334T584 209Q571 126 596
83T675 39Z" />
<glyph unicode="&amp;" glyph-name="ampersand" horiz-adv-x="663" d="M608 -8Q565 15 531 46T476 106H497Q446 52 381 22T245 -8Q174 -8 127 15T59 81T46 177Q56 239 101 283T221 373L270 402L259 390Q219 444 204 485T196 577Q202 615 224 646T285 695T375 713Q419
713 453 696T504 648T515 572Q510 539 491 508T434 446T329 376L328 395L494 172H484Q516 213 541 275T579 408H637Q621 325 590 254T520 129L513 150Q534 122 567 91T639 38L608 -8ZM250 44Q315 44 368 70T464 147L460 126L277 367L302 363L254 333Q187 293 151
260T107 178Q98 116 134 80T250 44ZM374 664Q325 664 293 638T255 573Q251 546 254 524T270 478T311 417L297 413Q378 460 415 495T459 571Q467 613 443 638T374 664Z" />
<glyph unicode="&apos;" glyph-name="quotesingle" horiz-adv-x="211" d="M115 434L141 705H214L156 434H115Z" />
<glyph unicode="(" glyph-name="parenleft" horiz-adv-x="300" d="M140 -180Q118 -107 106 -34T94 110Q94 223 118 330T186 532T284 705H342Q263 575 210 423T157 100Q157 35 166 -36T192 -180H140Z" />
<glyph unicode=")" glyph-name="parenright" horiz-adv-x="300" d="M20 -180H-39Q40 -50 93 102T146 425Q146 491 138 562T112 705H164Q186 632 197 560T209 415Q209 303 185 196T118 -7T20 -180Z" />
<glyph unicode="*" glyph-name="asterisk" horiz-adv-x="453" d="M171 372L131 400L242 531L86 580L104 627L256 571L265 736H316L298 571L458 627L471 580L308 531L399 400L359 372L278 509L171 372Z" />
<glyph unicode="+" glyph-name="plus" horiz-adv-x="600" d="M241 40L276 262H54L61 312H284L318 528H370L336 312H556L549 262H328L293 40H241Z" />
<glyph unicode="," glyph-name="comma" horiz-adv-x="219" d="M47 -106L20 -77Q47 -51 55 -31T68 11L88 0H26L40 86H125L114 15Q110 -9 103 -29T84 -68T47 -106Z" />
<glyph unicode="-" glyph-name="hyphen" horiz-adv-x="424" d="M73 248L81 300H357L349 248H73Z" />
<glyph unicode="." glyph-name="period" horiz-adv-x="219" d="M27 0L41 86H126L112 0H27Z" />
<glyph unicode="/" glyph-name="slash" horiz-adv-x="272" d="M-13 -54H-70L318 746H374L-13 -54Z" />
<glyph unicode="0" glyph-name="zero" horiz-adv-x="600" d="M267 -8Q143 -8 94 88T73 364Q102 543 176 628T366 713Q489 713 538 618T558 342Q530 164 455 78T267 -8ZM270 47Q359 47 415 119T497 352Q514 458 505 525T460 625T362 658Q273 658 217 587T135 355Q119
250 128 182T173 81T270 47Z" />
<glyph unicode="1" glyph-name="one" horiz-adv-x="600" d="M95 0L103 55H271L366 651L401 650L194 531L204 596L391 705H436L333 55H490L482 0H95Z" />
<glyph unicode="2" glyph-name="two" horiz-adv-x="600" d="M50 0L58 46L368 330Q423 381 453 424T494 521Q504 588 469 622T359 657Q298 657 245 638T141 577L117 627Q163 667 229 690T361 713Q430 713 477 691T545 625T556 519Q546 455 509 402T404 288L123
36L121 55H512L504 0H50Z" />
<glyph unicode="3" glyph-name="three" horiz-adv-x="600" d="M267 -8Q197 -8 136 14T36 78L65 128Q109 86 160 67T271 48Q351 48 400 81T461 188Q483 331 305 331H202L211 385H309Q384 385 434 422T496 528Q507 591 470 624T358 657Q297 657 244 638T141 576L117
625Q165 668 229 690T363 713Q466 713 518 664T557 525Q548 466 504 419T392 355L393 365Q467 353 500 303T522 177Q509 87 441 40T267 -8Z" />
<glyph unicode="4" glyph-name="four" horiz-adv-x="600" d="M360 0L385 160H39L47 206L481 705H533L454 212H566L557 160H446L421 0H360ZM393 212L460 632H486L106 196L103 212H393Z" />
<glyph unicode="5" glyph-name="five" horiz-adv-x="600" d="M283 -8Q238 -8 196 2T119 31T57 78L84 128Q127 87 177 68T286 48Q365 48 418 89T484 211Q496 286 460 334T344 382Q288 382 242 360T157 290H109L174 705H583L573 651H226L178 345H158Q193 391 245
414T354 438Q421 438 468 410T536 330T545 204Q535 137 500 90T409 17T283 -8Z" />
<glyph unicode="6" glyph-name="six" horiz-adv-x="600" d="M288 -8Q209 -8 154 30T78 147T77 353Q96 476 142 555T256 674T411 713Q469 713 520 693T600 634L569 588Q536 625 496 641T407 657Q300 657 232 583T136 345L119 244H110Q133 333 194 385T347 438Q415
438 462 409T531 327T540 201Q531 139 499 92T414 19T288 -8ZM288 47Q375 47 422 91T480 206Q493 288 453 335T337 383Q258 383 206 337T142 216Q130 141 170 94T288 47Z" />
<glyph unicode="7" glyph-name="seven" horiz-adv-x="600" d="M80 0L539 682L538 650H133L143 705H601L594 659L153 0H80Z" />
<glyph unicode="8" glyph-name="eight" horiz-adv-x="600" d="M267 -8Q143 -8 86 48T42 197Q54 271 105 314T233 367L232 355Q166 370 135 421T113 537Q126 618 190 665T369 713Q442 713 491 689T562 620T575 517Q565 452 521 409T406 351L407 363Q456 354 488
330T533 267T538 178Q523 88 454 40T267 -8ZM271 45Q363 45 415 80T478 188Q490 260 449 295T312 330Q217 330 166 296T103 194Q92 125 133 85T271 45ZM321 384Q404 384 453 417T513 517Q524 586 486 623T364 660Q278 660 231 625T174 530Q164 467 201 426T321
384Z" />
<glyph unicode="9" glyph-name="nine" horiz-adv-x="600" d="M222 -8Q164 -8 114 12T32 72L63 117Q97 80 137 64T226 48Q332 48 401 123T497 360L514 461H523Q500 372 439 320T286 267Q219 267 172 296T103 378T92 504Q103 566 135 613T221 687T346 713Q427 713
481 675T555 558T556 352Q537 230 491 150T377 31T222 -8ZM296 322Q375 322 427 368T491 489Q503 564 464 611T347 659Q260 659 212 615T153 499Q141 417 180 370T296 322Z" />
<glyph unicode=":" glyph-name="colon" horiz-adv-x="219" d="M93 416L106 501H192L178 416H93ZM26 0L40 86H125L111 0H26Z" />
<glyph unicode=";" glyph-name="semicolon" horiz-adv-x="219" d="M47 -106L19 -81Q47 -55 57 -33T72 11L84 0H30L43 86H128L118 16Q113 -20 97 -49T47 -106ZM93 415L106 501H192L178 415H93Z" />
<glyph unicode="&lt;" glyph-name="less" horiz-adv-x="600" d="M512 36L54 262L62 312L591 538L582 479L85 268L90 299L520 89L512 36Z" />
<glyph unicode="=" glyph-name="equal" horiz-adv-x="600" d="M70 362L77 412H571L564 362H70ZM39 163L46 212H540L533 163H39Z" />
<glyph unicode="&gt;" glyph-name="greater" horiz-adv-x="600" d="M19 36L28 95L525 305L520 274L90 485L99 538L557 312L549 262L19 36Z" />
<glyph unicode="?" glyph-name="question" horiz-adv-x="440" d="M160 173L164 197Q170 232 182 263T221 327T291 403Q314 425 337 452T375 510T391 575Q391 614 361 636T279 658Q239 658 203 648T132 621L141 681Q175 698 214 705T291 713Q341 713 378 698T434
653T454 584Q454 540 436 502T388 431T329 371Q270 317 244 278T207 196L201 173H160ZM110 0L123 86H209L195 0H110Z" />
<glyph unicode="@" glyph-name="at" horiz-adv-x="971" d="M507 -163Q411 -163 333 -133T196 -45T107 93T76 275Q76 372 109 452T201 591T342 681T518 713Q604 713 676 687T802 611T885 495T915 345Q915 258 889 194T817 95T713 59Q655 59 626 94T603 188L617
175Q591 120 546 90T450 59Q374 59 332 106T290 238Q290 312 318 370T396 461T507 494Q562 494 597 467T642 390H633L649 485H703L657 218Q655 206 654 195T653 174Q653 139 669 122T717 104Q758 104 791 134T846 218T867 345Q867 416 841 475T768 577T657 643T517
666Q433 666 362 638T238 558T157 435T128 275Q128 153 176 66T309 -68T507 -115Q590 -115 657 -88T767 -13L797 -52Q748 -105 673 -134T507 -163ZM455 107Q502 107 539 135T598 213T620 326Q620 386 593 415T511 445Q464 445 427 419T368 346T346 239Q346 175
374 141T455 107Z" />
<glyph unicode="A" glyph-name="A" horiz-adv-x="728" d="M-14 0L405 705H461L661 0H599L543 203L571 188H137L173 203L54 0H-14ZM423 630L189 229L168 241H556L537 229L426 630H423Z" />
<glyph unicode="B" glyph-name="B" horiz-adv-x="676" d="M53 0L165 705H441Q548 705 599 657T636 516Q625 446 579 405T459 350L461 364Q537 356 574 307T599 182Q585 89 518 45T336 0H53ZM121 53H339Q421 53 474 83T537 182Q547 238 530 270T478 316T391 331H165L121
53ZM174 383H376Q464 383 513 416T572 508Q584 581 549 617T435 653H216L174 383Z" />
<glyph unicode="C" glyph-name="C" horiz-adv-x="684" d="M368 -8Q255 -8 186 38T91 169T82 364Q100 476 150 554T277 673T454 713Q527 713 582 692T677 629L649 577Q605 621 560 638T451 656Q326 656 248 577T147 355Q133 263 151 194T225 87T371 49Q429 49 484
69T587 134L612 85Q567 39 502 16T368 -8Z" />
<glyph unicode="D" glyph-name="D" horiz-adv-x="740" d="M53 0L165 705H382Q503 705 576 662T678 538T689 342Q661 170 556 85T277 0H53ZM123 55H280Q431 55 517 127T626 351Q650 502 588 576T374 651H217L123 55Z" />
<glyph unicode="E" glyph-name="E" horiz-adv-x="585" d="M53 0L165 705H603L594 652H216L175 384H530L522 331H166L122 53H500L491 0H53Z" />
<glyph unicode="F" glyph-name="F" horiz-adv-x="558" d="M53 0L165 705H593L584 652H217L175 383H521L513 330H167L115 0H53Z" />
<glyph unicode="G" glyph-name="G" horiz-adv-x="727" d="M376 -8Q258 -8 187 37T91 166T83 364Q101 476 152 553T282 672T466 713Q543 713 596 692T687 633L657 581Q617 621 574 638T462 656Q333 656 251 577T147 353Q124 210 179 129T379 48Q433 48 481 58T577
90L555 47L596 311H409L418 363H660L609 44Q581 28 542 17T459 -1T376 -8Z" />
<glyph unicode="H" glyph-name="H" horiz-adv-x="762" d="M53 0L165 705H227L176 385H629L680 705H742L630 0H568L621 330H167L115 0H53Z" />
<glyph unicode="I" glyph-name="I" horiz-adv-x="247" d="M53 0L165 705H227L115 0H53Z" />
<glyph unicode="J" glyph-name="J" horiz-adv-x="314" d="M5 -186Q-11 -186 -30 -184T-68 -175L-59 -122Q-41 -129 -26 -131T4 -133Q50 -133 79 -104T118 -12L232 705H294L179 -16Q170 -71 148 -109T91 -166T5 -186Z" />
<glyph unicode="K" glyph-name="K" horiz-adv-x="619" d="M53 0L165 705H227L175 381H177L577 705H664L212 342L211 378L581 0H499L170 335H168L115 0H53Z" />
<glyph unicode="L" glyph-name="L" horiz-adv-x="538" d="M53 0L165 705H227L123 55H491L482 0H53Z" />
<glyph unicode="M" glyph-name="M" horiz-adv-x="853" d="M53 0L165 705H219L408 41H379L779 705H832L720 0H663L763 632H793L409 0H367L184 632H210L110 0H53Z" />
<glyph unicode="N" glyph-name="N" horiz-adv-x="743" d="M53 0L165 705H215L582 71L565 73L665 705H722L610 0H561L194 634L210 632L110 0H53Z" />
<glyph unicode="O" glyph-name="O" horiz-adv-x="765" d="M83 364Q101 476 150 554T275 672T448 713Q551 713 616 667T707 536T714 341Q697 230 648 152T522 33T348 -8Q246 -8 181 38T91 169T83 364ZM147 354Q132 259 151 191T221 86T353 48Q476 48 552 128T651
351Q666 445 646 514T575 620T444 657Q321 657 246 578T147 354Z" />
<glyph unicode="P" glyph-name="P" horiz-adv-x="644" d="M53 0L165 705H432Q545 705 597 650T633 496Q624 436 591 394T506 331T385 309H163L115 0H53ZM172 363H379Q463 363 511 397T571 502Q583 575 546 613T425 652H217L172 363Z" />
<glyph unicode="Q" glyph-name="Q" horiz-adv-x="765" d="M504 -191Q478 -172 453 -141T406 -74T370 0L433 19Q451 -33 484 -76T553 -150L504 -191ZM83 364Q101 476 150 554T275 672T448 713Q551 713 616 667T707 536T714 341Q697 230 648 152T522 33T348 -8Q246
-8 181 38T91 169T83 364ZM147 354Q132 259 151 191T221 86T353 48Q476 48 552 128T651 351Q666 445 646 514T575 620T444 657Q321 657 246 578T147 354Z" />
<glyph unicode="R" glyph-name="R" horiz-adv-x="688" d="M53 0L165 705H437Q550 705 602 651T640 500Q631 443 598 403T513 341T399 320L406 331H419Q460 331 487 311T529 245L601 0H535L468 234Q454 284 421 299T332 314H164L115 0H53ZM172 366H391Q471 366
519 402T577 504Q589 577 550 614T426 652H217L172 366Z" />
<glyph unicode="S" glyph-name="S" horiz-adv-x="613" d="M283 -8Q197 -8 133 13T25 65L54 116Q104 84 156 66T285 48Q377 48 429 84T490 178Q499 232 471 264T365 307L275 320Q176 334 134 386T105 518Q114 575 150 619T247 688T385 713Q458 713 515 692T610
637L583 586Q542 621 494 639T379 657Q290 657 234 618T167 515Q158 456 186 422T293 376L383 363Q483 350 524 303T552 174Q544 122 509 81T416 16T283 -8Z" />
<glyph unicode="T" glyph-name="T" horiz-adv-x="597" d="M226 0L328 651H73L82 705H655L646 651H390L288 0H226Z" />
<glyph unicode="U" glyph-name="U" horiz-adv-x="726" d="M331 -8Q240 -8 182 23T100 118T92 275L160 705H222L154 279Q136 163 177 106T336 48Q438 48 500 101T582 279L649 705H711L642 273Q627 175 587 113T482 21T331 -8Z" />
<glyph unicode="V" glyph-name="V" horiz-adv-x="687" d="M272 0L80 705H142L321 44H296L684 705H752L333 0H272Z" />
<glyph unicode="W" glyph-name="W" horiz-adv-x="1108" d="M242 0L110 705H172L292 44H260L600 705H652L770 44H741L1076 705H1142L783 0H724L608 642H628L299 0H242Z" />
<glyph unicode="X" glyph-name="X" horiz-adv-x="644" d="M-26 0L311 371L312 351L104 705H174L353 395H334L609 705H688L369 351L367 371L585 0H514L323 331H350L53 0H-26Z" />
<glyph unicode="Y" glyph-name="Y" horiz-adv-x="597" d="M227 0L279 328L286 281L67 705H135L319 340H301L601 705H674L320 280L341 328L289 0H227Z" />
<glyph unicode="Z" glyph-name="Z" horiz-adv-x="590" d="M3 0L10 46L546 678L541 650H105L115 705H614L607 660L70 28L74 55H521L513 0H3Z" />
<glyph unicode="[" glyph-name="bracketleft" horiz-adv-x="300" d="M39 -180L179 705H365L357 655H232L108 -130H233L225 -180H39Z" />
<glyph unicode="\" glyph-name="backslash" horiz-adv-x="272" d="M193 -54L56 746H110L247 -54H193Z" />
<glyph unicode="]" glyph-name="bracketright" horiz-adv-x="300" d="M-62 -180L-55 -130H70L194 655H70L78 705H263L123 -180H-62Z" />
<glyph unicode="^" glyph-name="asciicircum" horiz-adv-x="600" d="M28 140L334 628H384L536 140H485L342 597H373L86 140H28Z" />
<glyph unicode="_" glyph-name="underscore" horiz-adv-x="505" d="M-41 -43L-34 0H459L453 -43H-41Z" />
<glyph unicode="`" glyph-name="grave" horiz-adv-x="500" d="M320 550L179 751H248L367 550H320Z" />
<glyph unicode="a" glyph-name="a" horiz-adv-x="591" d="M239 -8Q170 -8 123 23T57 115T52 262Q72 382 141 446T309 510Q377 510 422 475T477 377L466 376L496 501H555Q548 472 541 444T530 389L468 0H407L427 126H442Q415 63 363 28T239 -8ZM251 44Q326 44 380
96T450 250Q466 351 428 404T310 458Q235 458 182 405T113 252Q97 150 134 97T251 44Z" />
<glyph unicode="b" glyph-name="b" horiz-adv-x="591" d="M283 -8Q214 -8 170 27T114 125L124 126L104 0H43L160 736H221L165 377L150 376Q177 438 229 474T353 510Q423 510 469 478T534 386T539 240Q520 119 451 56T283 -8ZM281 44Q357 44 409 96T478 250Q495
351 458 404T341 458Q266 458 212 405T142 252Q127 150 165 97T281 44Z" />
<glyph unicode="c" glyph-name="c" horiz-adv-x="491" d="M252 -8Q180 -8 130 23T59 115T52 262Q72 382 142 446T317 510Q364 510 406 495T474 448L447 405Q419 432 385 444T319 457Q239 457 185 405T114 254Q98 153 137 99T257 44Q294 44 333 58T407 104L432
58Q400 27 350 10T252 -8Z" />
<glyph unicode="d" glyph-name="d" horiz-adv-x="591" d="M239 -8Q170 -8 123 23T57 115T52 262Q72 382 141 446T309 510Q377 510 422 475T477 377H467L524 736H585L468 0H408L428 126H442Q415 63 363 28T239 -8ZM251 44Q326 44 380 96T450 250Q466 351 428 404T310
458Q235 458 182 405T113 252Q97 150 134 97T251 44Z" />
<glyph unicode="e" glyph-name="e" horiz-adv-x="543" d="M268 -8Q188 -8 135 25T61 119T53 266Q66 343 101 397T191 481T316 510Q384 510 428 481T490 399T498 276L494 248H95L101 293H464L446 279Q459 366 426 413T312 461Q254 461 213 436T146 367T113 267L111
248Q97 149 138 97T272 44Q318 44 362 58T442 106L467 61Q428 28 376 10T268 -8Z" />
<glyph unicode="f" glyph-name="f" horiz-adv-x="324" d="M67 0L138 452H38L47 501H162L143 485L158 580Q171 658 217 699T340 740Q358 740 377 737T408 728L399 674Q389 679 373 683T338 687Q305 687 280 673T239 633T216 565L204 485L196 501H350L342 452H199L128
0H67Z" />
<glyph unicode="g" glyph-name="g" horiz-adv-x="595" d="M226 -223Q164 -223 113 -206T24 -155L49 -108Q77 -131 104 -144T163 -164T231 -171Q307 -171 352 -131T410 -14L435 145H447Q422 83 368 47T243 11Q175 11 128 44T62 136T54 272Q72 386 142 448T312 510Q382
510 427 475T481 375L473 386L501 501H560Q552 472 545 444T534 389L472 -5Q455 -113 393 -168T226 -223ZM253 63Q331 63 384 115T453 260Q468 354 431 406T315 458Q237 458 183 406T114 261Q99 167 137 115T253 63Z" />
<glyph unicode="h" glyph-name="h" horiz-adv-x="578" d="M43 0L160 736H221L165 385H151Q181 446 234 478T357 510Q450 510 485 458T506 308L457 0H396L445 306Q458 388 432 422T339 457Q262 457 213 411T150 289L104 0H43Z" />
<glyph unicode="i" glyph-name="i" horiz-adv-x="228" d="M43 0L123 501H184L104 0H43ZM132 624L144 700H226L213 624H132Z" />
<glyph unicode="j" glyph-name="j" horiz-adv-x="228" d="M-64 -219Q-76 -219 -95 -217T-127 -207L-118 -154Q-106 -158 -91 -161T-62 -165Q-17 -165 8 -137T43 -45L130 501H191L102 -53Q90 -135 48 -177T-64 -219ZM139 624L151 700H232L220 624H139Z" />
<glyph unicode="k" glyph-name="k" horiz-adv-x="498" d="M43 0L160 736H221L148 274H150L428 501H512L190 240V277L462 0H384L145 241H143L104 0H43Z" />
<glyph unicode="l" glyph-name="l" horiz-adv-x="228" d="M43 0L160 736H221L104 0H43Z" />
<glyph unicode="m" glyph-name="m" horiz-adv-x="869" d="M43 0L105 389Q109 416 111 444T115 501H174L165 386H151Q180 447 228 478T339 510Q402 510 439 478T477 383H464Q490 439 542 474T659 510Q741 510 777 461T797 306L749 0H688L737 312Q749 388 727 422T643
457Q575 457 530 411T472 287L426 0H365L415 312Q427 388 405 422T321 457Q253 457 208 411T150 287L104 0H43Z" />
<glyph unicode="n" glyph-name="n" horiz-adv-x="578" d="M43 0L105 389Q109 416 111 444T115 501H174L165 386L151 385Q181 446 234 478T357 510Q450 510 485 458T506 308L457 0H396L445 306Q458 388 432 422T339 457Q262 457 213 411T150 289L104 0H43Z" />
<glyph unicode="o" glyph-name="o" horiz-adv-x="562" d="M246 -8Q174 -8 126 23T58 115T52 262Q65 342 101 397T192 481T315 510Q388 510 435 479T503 387T509 240Q496 159 459 104T368 21T246 -8ZM251 44Q325 44 379 96T449 250Q465 351 427 404T310 458Q235
458 182 405T113 252Q97 150 134 97T251 44Z" />
<glyph unicode="p" glyph-name="p" horiz-adv-x="591" d="M9 -216L105 389Q109 416 111 444T115 501H174L164 376H150Q177 438 229 474T353 510Q423 510 469 478T534 386T539 240Q520 119 451 56T283 -8Q214 -8 170 27T114 125H125L70 -216H9ZM281 44Q357 44 409
96T478 250Q495 351 458 404T341 458Q266 458 212 405T142 252Q127 150 165 97T281 44Z" />
<glyph unicode="q" glyph-name="q" horiz-adv-x="591" d="M373 -216L427 125L442 126Q415 63 363 28T239 -8Q170 -8 123 23T57 115T52 262Q72 382 141 446T309 510Q377 510 422 475T477 377L466 376L496 501H555Q548 472 541 444T530 389L434 -216H373ZM251 44Q326
44 380 96T450 250Q466 351 428 404T310 458Q235 458 182 405T113 252Q97 150 134 97T251 44Z" />
<glyph unicode="r" glyph-name="r" horiz-adv-x="349" d="M42 0L102 384Q107 413 110 442T115 501H174L165 386L153 385Q169 427 198 454T263 496T337 510Q350 510 361 509T383 505L372 449Q361 453 349 454T323 455Q276 455 240 435T181 382T152 308L103 0H42Z" />
<glyph unicode="s" glyph-name="s" horiz-adv-x="494" d="M211 -8Q157 -8 108 8T31 49L57 95Q89 70 129 56T215 42Q277 42 314 65T358 128Q364 163 345 185T279 215L212 226Q137 238 109 278T89 374Q96 417 123 447T193 493T287 510Q341 510 384 495T452 456L425
411Q399 434 364 446T287 459Q226 459 191 434T148 370Q143 334 159 311T218 280L288 268Q365 255 395 219T417 127Q411 87 384 56T313 9T211 -8Z" />
<glyph unicode="t" glyph-name="t" horiz-adv-x="337" d="M213 -8Q139 -8 109 32T91 155L138 452H38L47 501H146L168 641L232 661L207 501H355L347 452H199L154 165Q144 103 160 74T220 45Q239 45 255 49T283 58L275 4Q261 -1 246 -4T213 -8Z" />
<glyph unicode="u" glyph-name="u" horiz-adv-x="569" d="M226 -8Q140 -8 98 40T71 194L120 501H181L133 198Q121 117 146 81T237 44Q311 44 359 91T419 216L464 501H525L446 0H386L404 118H419Q391 57 340 25T226 -8Z" />
<glyph unicode="v" glyph-name="v" horiz-adv-x="525" d="M191 0L58 501H122L240 38H214L479 501H546L254 0H191Z" />
<glyph unicode="w" glyph-name="w" horiz-adv-x="863" d="M176 0L74 501H137L225 36H199L440 501H500L591 36H565L801 501H867L606 0H543L449 471H485L240 0H176Z" />
<glyph unicode="x" glyph-name="x" horiz-adv-x="528" d="M-22 0L242 275V242L74 501H144L278 288H256L457 501H535L289 244L290 272L465 0H393L250 227H272L56 0H-22Z" />
<glyph unicode="y" glyph-name="y" horiz-adv-x="525" d="M-15 -227L-26 -174Q23 -163 56 -148T115 -107T163 -45L198 15L195 -12L57 501H122L240 38H216L478 501H546L227 -48Q200 -94 173 -124T117 -175T56 -208T-15 -227Z" />
<glyph unicode="z" glyph-name="z" horiz-adv-x="515" d="M10 0L17 42L429 469L426 452H81L90 501H497L490 459L77 31L80 49H438L429 0H10Z" />
<glyph unicode="{" glyph-name="braceleft" horiz-adv-x="338" d="M194 -180Q155 -180 131 -169T99 -137T95 -86L132 156Q138 197 126 216T71 237L47 239L54 287L80 289Q123 291 141 310T167 370L205 611Q213 657 239 681T311 705H404L396 655H318Q295 655 282
644T265 609L227 364Q222 328 205 306T165 272T121 261V265Q142 265 160 254T189 221T193 162L156 -84Q152 -106 160 -118T193 -130H272L264 -180H194Z" />
<glyph unicode="|" glyph-name="bar" horiz-adv-x="256" d="M29 -180L169 705H230L90 -180H29Z" />
<glyph unicode="}" glyph-name="braceright" horiz-adv-x="338" d="M-62 -180L-55 -130H23Q46 -130 59 -118T77 -84L115 161Q121 198 138 220T177 253T221 264V260Q200 260 182 271T153 305T148 364L186 609Q190 632 181 643T149 655H70L78 705H148Q188 705 211
694T243 662T247 611L209 369Q203 328 216 309T270 288L294 287L287 238L262 236Q219 234 201 215T175 155L137 -86Q129 -132 103 -156T31 -180H-62Z" />
<glyph unicode="~" glyph-name="asciitilde" horiz-adv-x="600" d="M422 221Q386 221 354 235T294 265Q266 282 242 293T195 304Q160 304 136 284T94 237L54 261Q81 307 113 330T190 354Q226 354 259 339T321 308Q349 293 371 282T417 270Q453 270 477 290T518
337L558 313Q531 268 499 245T422 221Z" />
<glyph unicode="&#xa0;" glyph-name="uni00A0" horiz-adv-x="255" />
<glyph unicode="&#xa1;" glyph-name="exclamdown" horiz-adv-x="219" d="M3 -180L103 329H141L79 -180H3ZM93 416L106 501H192L178 416H93Z" />
<glyph unicode="&#xa2;" glyph-name="cent" horiz-adv-x="600" d="M231 -115L251 12L262 -5Q171 6 125 69T97 251Q116 363 180 422T340 489L323 466L345 605H399L377 468L368 489Q413 489 453 474T519 429L492 388Q464 414 430 425T364 437Q284 437 229 388T159
244Q148 180 162 136T212 68T302 44Q339 44 378 57T452 101L476 56Q444 26 392 9T287 -8L304 11L285 -115H231Z" />
<glyph unicode="&#xa3;" glyph-name="sterling" horiz-adv-x="600" d="M8 0L14 45Q68 66 102 95T143 171L169 331H60L67 377H176L199 516Q215 615 274 664T432 713Q492 713 539 695T618 640L588 595Q557 626 522 642T432 658Q358 658 316 623T260 510L238 377H430L423
331H231L209 192Q200 133 170 99T96 48L97 54H530L521 0H8Z" />
<glyph unicode="&#xa4;" glyph-name="currency" horiz-adv-x="600" d="M111 -24L72 16L146 92Q122 123 109 162T95 245Q95 289 108 328T146 399L72 474L111 514L185 438Q215 464 254 478T335 493Q378 493 415 479T484 440L556 514L596 474L523 400Q548 368 562
329T576 245Q576 201 562 162T522 90L596 16L556 -24L484 51Q453 25 416 11T335 -3Q293 -3 255 11T184 51L111 -24ZM335 53Q385 53 425 79T490 148T514 245Q514 298 490 341T426 411T335 437Q285 437 244 411T179 342T155 245Q155 192 179 149T244 79T335 53Z"
/>
<glyph unicode="&#xa5;" glyph-name="yen" horiz-adv-x="600" d="M229 0L258 184H63L71 228H266L282 335H87L94 380H264L263 371L72 705H139L325 376H307L598 705H672L376 371L377 380H546L539 335H344L327 228H522L515 184H320L291 0H229Z" />
<glyph unicode="&#xa6;" glyph-name="brokenbar" horiz-adv-x="256" d="M116 372L169 705H230L177 372H116ZM29 -180L82 153H143L90 -180H29Z" />
<glyph unicode="&#xa7;" glyph-name="section" horiz-adv-x="530" d="M192 -188Q124 -188 72 -171T-16 -122L12 -78Q34 -99 61 -112T120 -131T191 -138Q266 -138 308 -100T351 -5Q351 38 331 62T267 113L171 171Q113 206 82 244T51 327Q51 369 73 407T138 474L136
463Q129 479 126 495T123 528Q123 583 153 624T233 689T344 713Q401 713 450 698T534 646L509 603Q482 632 437 647T345 663Q269 663 227 625T185 529Q185 487 203 462T268 409L361 354Q422 318 452 280T483 198Q483 156 461 117T396 51L398 63Q406 48 409 32T412
-3Q412 -58 383 -100T304 -165T192 -188ZM109 336Q109 301 134 274T206 217L289 166Q321 146 344 128T382 86L372 89Q399 111 412 138T426 189Q426 224 401 251T326 308L247 356Q216 376 192 394T154 436L163 437Q137 415 123 388T109 336Z" />
<glyph unicode="&#xa8;" glyph-name="dieresis" horiz-adv-x="500" d="M354 615L365 687H439L427 615H354ZM187 615L198 687H271L260 615H187Z" />
<glyph unicode="&#xa9;" glyph-name="copyright" horiz-adv-x="815" d="M429 -8Q353 -8 287 19T172 96T96 211T68 353Q68 430 95 495T172 609T286 685T429 713Q506 713 571 686T685 610T761 496T789 353Q789 277 762 211T686 96T572 20T429 -8ZM440 137Q344 137
290 197T236 356Q236 454 290 511T440 568Q480 568 518 553T582 513L561 471Q533 497 502 508T441 520Q371 520 332 477T292 355Q292 277 331 232T441 186Q471 186 502 197T561 235L582 192Q557 167 518 152T440 137ZM429 31Q497 31 555 55T656 124T724 226T748
353Q748 421 724 479T657 581T555 649T429 674Q361 674 303 650T201 582T133 480T109 353Q109 285 133 227T200 124T302 56T429 31Z" />
<glyph unicode="&#xaa;" glyph-name="ordfeminine" horiz-adv-x="319" d="M160 412Q127 412 105 424T72 457T66 505Q71 537 91 554T143 579T211 586H293L287 553H206Q119 553 112 504Q108 480 121 464T169 448Q211 448 241 474T280 547L289 605Q294 640 278 658T222
676Q196 676 168 669T116 646L102 682Q129 697 162 705T228 713Q287 713 314 684T331 593L303 417H261L269 471H267Q248 440 222 426T160 412Z" />
<glyph unicode="&#xab;" glyph-name="guillemotleft" horiz-adv-x="421" d="M131 88L30 267L190 448H254L93 261L189 88H131ZM302 88L201 267L361 448H425L264 261L360 88H302Z" />
<glyph unicode="&#xac;" glyph-name="logicalnot" horiz-adv-x="600" d="M480 153L514 364H71L78 414H573L532 153H480Z" />
<glyph unicode="&#xad;" glyph-name="uni00AD" horiz-adv-x="424" d="M73 248L81 300H357L349 248H73Z" />
<glyph unicode="&#xae;" glyph-name="registered" horiz-adv-x="815" d="M429 -8Q353 -8 287 19T172 96T96 211T68 353Q68 430 95 495T172 609T286 685T429 713Q506 713 571 686T685 610T761 496T789 353Q789 277 762 211T686 96T572 20T429 -8ZM429 31Q497 31
555 55T656 124T724 226T748 353Q748 421 724 479T657 581T555 649T429 674Q361 674 303 650T201 582T133 480T109 353Q109 285 133 227T200 124T302 56T429 31ZM289 142V563H456Q522 563 558 532T594 442Q594 385 558 355T456 324L464 334Q494 334 514 321T547
276L599 142H544L492 274Q481 301 461 310T412 319H331L343 328V142H289ZM343 364H449Q496 364 518 382T541 441Q541 480 519 499T449 518H343V364Z" />
<glyph unicode="&#xaf;" glyph-name="overscore" horiz-adv-x="500" d="M165 629L173 675H461L453 629H165Z" />
<glyph unicode="&#xb0;" glyph-name="degree" horiz-adv-x="367" d="M235 421Q193 421 161 440T109 492T90 566Q90 607 109 639T161 691T235 711Q276 711 308 692T358 641T377 566Q377 525 358 492T308 440T235 421ZM235 468Q277 468 302 495T327 566Q327 609
302 636T235 664Q193 664 167 637T141 566Q141 523 167 496T235 468Z" />
<glyph unicode="&#xb1;" glyph-name="plusminus" horiz-adv-x="600" d="M255 122L283 300H60L68 350H291L319 529H371L343 350H560L554 300H334L306 122H255ZM12 0L20 50H514L507 0H12Z" />
<glyph unicode="&#xb2;" glyph-name="uni00B2" horiz-adv-x="380" d="M59 282L66 321L239 475Q275 508 293 533T314 581Q321 622 302 641T244 661Q214 661 181 650T120 614L100 654Q130 681 169 695T250 709Q312 709 347 677T372 582Q368 556 349 524T289 456L133
320L129 330H352L344 282H59Z" />
<glyph unicode="&#xb3;" glyph-name="uni00B3" horiz-adv-x="380" d="M199 279Q151 279 113 293T54 333L76 372Q97 350 128 338T196 325Q236 325 264 343T299 401Q306 440 282 456T211 473H136L143 519H209Q254 519 283 538T318 595Q323 627 304 645T244 663Q211
663 176 650T117 614L97 655Q127 680 167 694T253 709Q316 709 348 679T373 595Q367 557 339 531T275 494L276 501Q317 493 338 466T352 392Q344 339 301 309T199 279Z" />
<glyph unicode="&#xb4;" glyph-name="acute" horiz-adv-x="500" d="M274 550L408 751H479L321 550H274Z" />
<glyph unicode="&#xb5;" glyph-name="uni00B5" horiz-adv-x="566" d="M7 -216L119 501H180L133 196Q121 118 147 81T234 44Q311 44 357 93T417 226L459 501H520L443 0H383L401 117H411Q387 59 341 26T230 -8Q184 -8 150 9T100 62L106 64L69 -216H7Z" />
<glyph unicode="&#xb6;" glyph-name="paragraph" horiz-adv-x="584" d="M180 -180L260 322Q207 322 169 344T110 403T89 487Q89 552 118 601T198 677T315 705H563L423 -180H369L501 655H366L234 -180H180Z" />
<glyph unicode="&#xb7;" glyph-name="middot" horiz-adv-x="222" d="M65 231L78 316H165L151 231H65Z" />
<glyph unicode="&#xb8;" glyph-name="cedilla" horiz-adv-x="500" d="M186 -191Q161 -191 140 -186T103 -172L118 -133Q136 -142 151 -146T190 -150Q218 -150 236 -139T254 -108Q254 -95 245 -88T219 -80Q209 -80 198 -81T169 -89L155 -75L185 20H229L205 -55L184
-51Q196 -48 208 -46T230 -44Q261 -44 281 -60T302 -105Q302 -143 269 -167T186 -191Z" />
<glyph unicode="&#xb9;" glyph-name="uni00B9" horiz-adv-x="380" d="M96 282L104 330H201L252 658L278 656L152 585L161 642L271 705H313L254 330H339L332 282H96Z" />
<glyph unicode="&#xba;" glyph-name="ordmasculine" horiz-adv-x="334" d="M198 412Q134 412 100 452T76 568Q87 639 130 676T235 713Q298 713 333 674T357 557Q346 488 303 450T198 412ZM200 450Q242 450 272 479T311 563Q320 618 299 646T233 675Q190 675 160
647T121 563Q113 508 134 479T200 450Z" />
<glyph unicode="&#xbb;" glyph-name="guillemotright" horiz-adv-x="421" d="M78 88H14L175 275L79 448H137L238 269L78 88ZM247 88H183L344 275L248 448H306L407 269L247 88Z" />
<glyph unicode="&#xbc;" glyph-name="onequarter" horiz-adv-x="888" d="M96 282L104 330H201L252 658L278 656L152 585L161 642L271 705H313L254 330H339L332 282H96ZM242 -8H182L721 713H782L242 -8ZM710 0L724 90H520L527 131L783 423H828L782 136H849L842
90H775L761 0H710ZM732 136L767 359H781L572 121L570 136H732Z" />
<glyph unicode="&#xbd;" glyph-name="onehalf" horiz-adv-x="930" d="M96 282L104 330H201L252 658L278 656L152 585L161 642L271 705H313L254 330H339L332 282H96ZM242 -8H182L721 713H782L242 -8ZM564 0L571 39L744 193Q780 226 798 251T819 299Q826 340 807
359T749 379Q719 379 686 368T625 332L605 372Q635 399 674 413T755 427Q817 427 852 395T877 300Q873 274 854 242T794 174L638 38L634 48H857L849 0H564Z" />
<glyph unicode="&#xbe;" glyph-name="threequarters" horiz-adv-x="888" d="M199 279Q151 279 113 293T54 333L76 372Q97 350 128 338T196 325Q236 325 264 343T299 401Q306 440 282 456T211 473H136L143 519H209Q254 519 283 538T318 595Q323 627 304 645T244
663Q211 663 176 650T117 614L97 655Q127 680 167 694T253 709Q316 709 348 679T373 595Q367 557 339 531T275 494L276 501Q317 493 338 466T352 392Q344 339 301 309T199 279ZM242 -8H182L721 713H782L242 -8ZM710 0L724 90H520L527 131L783 423H828L782 136H849L842
90H775L761 0H710ZM732 136L767 359H781L572 121L570 136H732Z" />
<glyph unicode="&#xbf;" glyph-name="questiondown" horiz-adv-x="440" d="M148 -211Q98 -211 62 -195T5 -150T-15 -81Q-15 -36 4 2T52 72T111 132Q169 186 196 225T233 307L239 329H279L276 306Q271 272 258 241T219 176T149 100Q126 78 103 51T65 -7T49 -72Q49
-111 79 -133T161 -155Q202 -155 238 -145T308 -118L298 -178Q264 -195 225 -203T148 -211ZM330 501L316 416H231L245 501H330Z" />
<glyph unicode="&#xc0;" glyph-name="Agrave" horiz-adv-x="728" d="M-14 0L405 705H461L661 0H599L543 203L571 188H137L173 203L54 0H-14ZM423 630L189 229L168 241H556L537 229L426 630H423ZM419 765L292 936H364L469 765H419Z" />
<glyph unicode="&#xc1;" glyph-name="Aacute" horiz-adv-x="728" d="M-14 0L405 705H461L661 0H599L543 203L571 188H137L173 203L54 0H-14ZM423 630L189 229L168 241H556L537 229L426 630H423ZM419 765L550 936H624L469 765H419Z" />
<glyph unicode="&#xc2;" glyph-name="Acircumflex" horiz-adv-x="728" d="M-14 0L405 705H461L661 0H599L543 203L571 188H137L173 203L54 0H-14ZM423 630L189 229L168 241H556L537 229L426 630H423ZM282 765L422 936H484L588 765H539L450 891L331 765H282Z" />
<glyph unicode="&#xc3;" glyph-name="Atilde" horiz-adv-x="728" d="M-14 0L405 705H461L661 0H599L543 203L571 188H137L173 203L54 0H-14ZM423 630L189 229L168 241H556L537 229L426 630H423ZM279 787L240 790Q251 851 282 884T360 917Q390 917 415 903T463
872Q483 858 501 847T538 836Q596 836 616 920L655 917Q644 856 613 823T536 790Q506 790 481 804T432 835Q413 849 394 860T357 871Q299 871 279 787Z" />
<glyph unicode="&#xc4;" glyph-name="Adieresis" horiz-adv-x="728" d="M-14 0L405 705H461L661 0H599L543 203L571 188H137L173 203L54 0H-14ZM423 630L189 229L168 241H556L537 229L426 630H423ZM497 813L509 886H582L570 813H497ZM330 813L342 886H415L403 813H330Z" />
<glyph unicode="&#xc5;" glyph-name="Aring" horiz-adv-x="728" d="M-14 0L405 705H461L661 0H599L543 203L571 188H137L173 203L54 0H-14ZM423 630L189 229L168 241H556L537 229L426 630H423ZM460 759Q428 759 402 774T361 815T345 872Q345 904 360 929T402 969T460
985Q493 985 519 970T560 929T575 872Q575 841 560 816T519 775T460 759ZM460 797Q494 797 514 818T535 872Q535 904 515 925T460 947Q428 947 407 926T385 872Q385 840 406 819T460 797Z" />
<glyph unicode="&#xc6;" glyph-name="AE" horiz-adv-x="1001" d="M-34 0L504 705H1019L1010 652H601L625 675L605 368L590 384H947L939 331H591L603 341L583 32L578 53H916L907 0H521L534 197L558 188H166L196 205L40 0H-34ZM531 651L211 226L202 241H547L537
226L564 651H531Z" />
<glyph unicode="&#xc7;" glyph-name="Ccedilla" horiz-adv-x="684" d="M368 -8Q255 -8 186 38T91 169T82 364Q100 476 150 554T277 673T454 713Q527 713 582 692T677 629L649 577Q605 621 560 638T451 656Q326 656 248 577T147 355Q133 263 151 194T225 87T371
49Q429 49 484 69T587 134L612 85Q567 39 502 16T368 -8ZM329 -191Q304 -191 283 -186T246 -172L261 -133Q279 -142 294 -146T333 -150Q361 -150 379 -139T397 -108Q397 -95 388 -88T362 -80Q352 -80 341 -81T312 -89L298 -75L328 20H372L348 -55L327 -51Q339 -48
351 -46T373 -44Q404 -44 424 -60T445 -105Q445 -143 412 -167T329 -191Z" />
<glyph unicode="&#xc8;" glyph-name="Egrave" horiz-adv-x="585" d="M53 0L165 705H603L594 652H216L175 384H530L522 331H166L122 53H500L491 0H53ZM382 765L255 936H327L432 765H382Z" />
<glyph unicode="&#xc9;" glyph-name="Eacute" horiz-adv-x="585" d="M53 0L165 705H603L594 652H216L175 384H530L522 331H166L122 53H500L491 0H53ZM382 765L513 936H587L432 765H382Z" />
<glyph unicode="&#xca;" glyph-name="Ecircumflex" horiz-adv-x="585" d="M53 0L165 705H603L594 652H216L175 384H530L522 331H166L122 53H500L491 0H53ZM246 765L386 936H448L552 765H503L414 891L295 765H246Z" />
<glyph unicode="&#xcb;" glyph-name="Edieresis" horiz-adv-x="585" d="M53 0L165 705H603L594 652H216L175 384H530L522 331H166L122 53H500L491 0H53ZM461 813L473 886H546L534 813H461ZM294 813L306 886H379L367 813H294Z" />
<glyph unicode="&#xcc;" glyph-name="Igrave" horiz-adv-x="247" d="M53 0L165 705H227L115 0H53ZM180 765L53 936H125L230 765H180Z" />
<glyph unicode="&#xcd;" glyph-name="Iacute" horiz-adv-x="247" d="M53 0L165 705H227L115 0H53ZM180 765L311 936H385L230 765H180Z" />
<glyph unicode="&#xce;" glyph-name="Icircumflex" horiz-adv-x="247" d="M53 0L165 705H227L115 0H53ZM44 765L184 936H246L350 765H301L212 891L93 765H44Z" />
<glyph unicode="&#xcf;" glyph-name="Idieresis" horiz-adv-x="247" d="M53 0L165 705H227L115 0H53ZM259 813L271 886H344L332 813H259ZM92 813L104 886H177L165 813H92Z" />
<glyph unicode="&#xd0;" glyph-name="Eth" horiz-adv-x="740" d="M53 0L165 705H382Q503 705 576 662T678 538T689 342Q661 170 556 85T277 0H53ZM123 55H280Q431 55 517 127T626 351Q650 502 588 576T374 651H217L123 55ZM19 333L27 383H377L369 333H19Z" />
<glyph unicode="&#xd1;" glyph-name="Ntilde" horiz-adv-x="743" d="M53 0L165 705H215L582 71L565 73L665 705H722L610 0H561L194 634L210 632L110 0H53ZM290 787L251 790Q262 851 293 884T371 917Q401 917 426 903T474 872Q494 858 512 847T549 836Q607 836
627 920L666 917Q655 856 624 823T547 790Q517 790 492 804T443 835Q424 849 405 860T368 871Q310 871 290 787Z" />
<glyph unicode="&#xd2;" glyph-name="Ograve" horiz-adv-x="765" d="M83 364Q101 476 150 554T275 672T448 713Q551 713 616 667T707 536T714 341Q697 230 648 152T522 33T348 -8Q246 -8 181 38T91 169T83 364ZM147 354Q132 259 151 191T221 86T353 48Q476 48
552 128T651 351Q666 445 646 514T575 620T444 657Q321 657 246 578T147 354ZM439 765L312 936H384L489 765H439Z" />
<glyph unicode="&#xd3;" glyph-name="Oacute" horiz-adv-x="765" d="M83 364Q101 476 150 554T275 672T448 713Q551 713 616 667T707 536T714 341Q697 230 648 152T522 33T348 -8Q246 -8 181 38T91 169T83 364ZM147 354Q132 259 151 191T221 86T353 48Q476 48
552 128T651 351Q666 445 646 514T575 620T444 657Q321 657 246 578T147 354ZM439 765L570 936H644L489 765H439Z" />
<glyph unicode="&#xd4;" glyph-name="Ocircumflex" horiz-adv-x="765" d="M83 364Q101 476 150 554T275 672T448 713Q551 713 616 667T707 536T714 341Q697 230 648 152T522 33T348 -8Q246 -8 181 38T91 169T83 364ZM147 354Q132 259 151 191T221 86T353 48Q476
48 552 128T651 351Q666 445 646 514T575 620T444 657Q321 657 246 578T147 354ZM303 765L443 936H505L609 765H560L471 891L352 765H303Z" />
<glyph unicode="&#xd5;" glyph-name="Otilde" horiz-adv-x="765" d="M83 364Q101 476 150 554T275 672T448 713Q551 713 616 667T707 536T714 341Q697 230 648 152T522 33T348 -8Q246 -8 181 38T91 169T83 364ZM147 354Q132 259 151 191T221 86T353 48Q476 48
552 128T651 351Q666 445 646 514T575 620T444 657Q321 657 246 578T147 354ZM300 787L261 790Q272 851 303 884T381 917Q411 917 436 903T484 872Q504 858 522 847T559 836Q617 836 637 920L676 917Q665 856 634 823T557 790Q527 790 502 804T453 835Q434 849
415 860T378 871Q320 871 300 787Z" />
<glyph unicode="&#xd6;" glyph-name="Odieresis" horiz-adv-x="765" d="M83 364Q101 476 150 554T275 672T448 713Q551 713 616 667T707 536T714 341Q697 230 648 152T522 33T348 -8Q246 -8 181 38T91 169T83 364ZM147 354Q132 259 151 191T221 86T353 48Q476
48 552 128T651 351Q666 445 646 514T575 620T444 657Q321 657 246 578T147 354ZM518 813L530 886H603L591 813H518ZM351 813L363 886H436L424 813H351Z" />
<glyph unicode="&#xd7;" glyph-name="multiply" horiz-adv-x="600" d="M99 49L64 85L281 286L102 482L138 518L319 320L535 518L570 482L353 283L532 85L496 49L315 248L99 49Z" />
<glyph unicode="&#xd8;" glyph-name="Oslash" horiz-adv-x="765" d="M83 364Q101 476 150 554T275 672T448 713Q551 713 616 667T707 536T714 341Q697 230 648 152T522 33T348 -8Q246 -8 181 38T91 169T83 364ZM147 354Q132 259 151 191T221 86T353 48Q476 48
552 128T651 351Q666 445 646 514T575 620T444 657Q321 657 246 578T147 354ZM211 56L148 -29L107 0L170 86L194 115L569 620L588 650L652 734L693 705L629 620L606 590L231 85L211 56Z" />
<glyph unicode="&#xd9;" glyph-name="Ugrave" horiz-adv-x="726" d="M331 -8Q240 -8 182 23T100 118T92 275L160 705H222L154 279Q136 163 177 106T336 48Q438 48 500 101T582 279L649 705H711L642 273Q627 175 587 113T482 21T331 -8ZM421 765L294 936H366L471 765H421Z" />
<glyph unicode="&#xda;" glyph-name="Uacute" horiz-adv-x="726" d="M331 -8Q240 -8 182 23T100 118T92 275L160 705H222L154 279Q136 163 177 106T336 48Q438 48 500 101T582 279L649 705H711L642 273Q627 175 587 113T482 21T331 -8ZM421 765L552 936H626L471 765H421Z" />
<glyph unicode="&#xdb;" glyph-name="Ucircumflex" horiz-adv-x="726" d="M331 -8Q240 -8 182 23T100 118T92 275L160 705H222L154 279Q136 163 177 106T336 48Q438 48 500 101T582 279L649 705H711L642 273Q627 175 587 113T482 21T331 -8ZM284 765L424 936H486L590
765H541L452 891L333 765H284Z" />
<glyph unicode="&#xdc;" glyph-name="Udieresis" horiz-adv-x="726" d="M331 -8Q240 -8 182 23T100 118T92 275L160 705H222L154 279Q136 163 177 106T336 48Q438 48 500 101T582 279L649 705H711L642 273Q627 175 587 113T482 21T331 -8ZM499 813L511 886H584L572
813H499ZM332 813L344 886H417L405 813H332Z" />
<glyph unicode="&#xdd;" glyph-name="Yacute" horiz-adv-x="597" d="M227 0L279 328L286 281L67 705H135L319 340H301L601 705H674L320 280L341 328L289 0H227ZM356 765L487 936H561L406 765H356Z" />
<glyph unicode="&#xde;" glyph-name="Thorn" horiz-adv-x="645" d="M53 0L165 705H227L204 564H410Q523 564 575 509T611 356Q602 295 569 253T484 190T363 169H141L115 0H53ZM149 222H357Q440 222 489 256T549 361Q561 435 524 473T403 511H195L149 222Z" />
<glyph unicode="&#xdf;" glyph-name="germandbls" horiz-adv-x="616" d="M43 0L123 502Q142 622 205 681T377 741Q437 741 477 721T536 663T546 568Q540 528 518 491T452 422T338 362L337 376Q426 351 479 318T552 242T564 145Q557 99 530 65T460 11T360 -8Q305
-8 261 7T188 47L212 92Q245 68 281 55T361 42Q421 42 459 71T505 154Q511 191 495 223T427 284T280 340L289 391Q360 417 401 445T463 504T489 570Q498 627 469 659T374 691Q291 691 246 646T185 507L104 0H43Z" />
<glyph unicode="&#xe0;" glyph-name="agrave" horiz-adv-x="591" d="M239 -8Q170 -8 123 23T57 115T52 262Q72 382 141 446T309 510Q377 510 422 475T477 377L466 376L496 501H555Q548 472 541 444T530 389L468 0H407L427 126H442Q415 63 363 28T239 -8ZM251 44Q326
44 380 96T450 250Q466 351 428 404T310 458Q235 458 182 405T113 252Q97 150 134 97T251 44ZM312 550L171 751H240L359 550H312Z" />
<glyph unicode="&#xe1;" glyph-name="aacute" horiz-adv-x="591" d="M239 -8Q170 -8 123 23T57 115T52 262Q72 382 141 446T309 510Q377 510 422 475T477 377L466 376L496 501H555Q548 472 541 444T530 389L468 0H407L427 126H442Q415 63 363 28T239 -8ZM251 44Q326
44 380 96T450 250Q466 351 428 404T310 458Q235 458 182 405T113 252Q97 150 134 97T251 44ZM314 550L448 751H519L361 550H314Z" />
<glyph unicode="&#xe2;" glyph-name="acircumflex" horiz-adv-x="591" d="M239 -8Q170 -8 123 23T57 115T52 262Q72 382 141 446T309 510Q377 510 422 475T477 377L466 376L496 501H555Q548 472 541 444T530 389L468 0H407L427 126H442Q415 63 363 28T239 -8ZM251
44Q326 44 380 96T450 250Q466 351 428 404T310 458Q235 458 182 405T113 252Q97 150 134 97T251 44ZM195 550L326 751H388L476 550H431L354 705L241 550H195Z" />
<glyph unicode="&#xe3;" glyph-name="atilde" horiz-adv-x="591" d="M239 -8Q170 -8 123 23T57 115T52 262Q72 382 141 446T309 510Q377 510 422 475T477 377L466 376L496 501H555Q548 472 541 444T530 389L468 0H407L427 126H442Q415 63 363 28T239 -8ZM251 44Q326
44 380 96T450 250Q466 351 428 404T310 458Q235 458 182 405T113 252Q97 150 134 97T251 44ZM208 592L169 595Q180 656 208 689T279 722Q305 722 322 708T355 678Q369 663 383 652T413 641Q465 641 483 725L522 722Q512 661 484 628T413 595Q388 595 369 609T335
640Q322 654 309 665T278 676Q226 676 208 592Z" />
<glyph unicode="&#xe4;" glyph-name="adieresis" horiz-adv-x="591" d="M239 -8Q170 -8 123 23T57 115T52 262Q72 382 141 446T309 510Q377 510 422 475T477 377L466 376L496 501H555Q548 472 541 444T530 389L468 0H407L427 126H442Q415 63 363 28T239 -8ZM251
44Q326 44 380 96T450 250Q466 351 428 404T310 458Q235 458 182 405T113 252Q97 150 134 97T251 44ZM395 615L406 687H480L468 615H395ZM228 615L239 687H312L301 615H228Z" />
<glyph unicode="&#xe5;" glyph-name="aring" horiz-adv-x="591" d="M239 -8Q170 -8 123 23T57 115T52 262Q72 382 141 446T309 510Q377 510 422 475T477 377L466 376L496 501H555Q548 472 541 444T530 389L468 0H407L427 126H442Q415 63 363 28T239 -8ZM251 44Q326
44 380 96T450 250Q466 351 428 404T310 458Q235 458 182 405T113 252Q97 150 134 97T251 44ZM354 547Q323 547 297 562T255 603T239 660Q239 691 254 716T296 757T354 772Q387 772 413 757T454 717T470 659Q470 629 455 603T413 562T354 547ZM354 584Q388 584
408 606T429 660Q429 692 409 713T355 735Q322 735 301 714T279 660Q279 628 300 606T354 584Z" />
<glyph unicode="&#xe6;" glyph-name="ae" horiz-adv-x="886" d="M210 -8Q154 -8 116 13T60 71T50 154Q60 209 100 238T207 279T367 291H418L412 247H361Q287 247 233 240T148 211T110 147Q103 100 131 71T217 41Q289 41 336 87T396 208L415 325Q426 395 397 426T312
458Q262 458 219 446T130 404L107 450Q136 469 169 482T239 503T312 510Q393 510 430 475T469 376H447Q480 440 538 475T665 510Q730 510 773 481T835 399T842 276L838 248H448L455 293H808L791 279Q803 366 770 413T660 461Q605 461 565 436T499 367T466 267L464
248Q450 149 491 97T621 44Q664 44 707 58T787 106L812 61Q775 28 722 10T617 -8Q527 -8 475 34T409 156H429Q402 79 346 36T210 -8Z" />
<glyph unicode="&#xe7;" glyph-name="ccedilla" horiz-adv-x="491" d="M252 -8Q180 -8 130 23T59 115T52 262Q72 382 142 446T317 510Q364 510 406 495T474 448L447 405Q419 432 385 444T319 457Q239 457 185 405T114 254Q98 153 137 99T257 44Q294 44 333 58T407
104L432 58Q400 27 350 10T252 -8ZM225 -191Q200 -191 179 -186T142 -172L157 -133Q175 -142 190 -146T229 -150Q257 -150 275 -139T293 -108Q293 -95 284 -88T258 -80Q248 -80 237 -81T208 -89L194 -75L224 20H268L244 -55L223 -51Q235 -48 247 -46T269 -44Q300
-44 320 -60T341 -105Q341 -143 308 -167T225 -191Z" />
<glyph unicode="&#xe8;" glyph-name="egrave" horiz-adv-x="543" d="M268 -8Q188 -8 135 25T61 119T53 266Q66 343 101 397T191 481T316 510Q384 510 428 481T490 399T498 276L494 248H95L101 293H464L446 279Q459 366 426 413T312 461Q254 461 213 436T146 367T113
267L111 248Q97 149 138 97T272 44Q318 44 362 58T442 106L467 61Q428 28 376 10T268 -8ZM308 550L167 751H236L355 550H308Z" />
<glyph unicode="&#xe9;" glyph-name="eacute" horiz-adv-x="543" d="M268 -8Q188 -8 135 25T61 119T53 266Q66 343 101 397T191 481T316 510Q384 510 428 481T490 399T498 276L494 248H95L101 293H464L446 279Q459 366 426 413T312 461Q254 461 213 436T146 367T113
267L111 248Q97 149 138 97T272 44Q318 44 362 58T442 106L467 61Q428 28 376 10T268 -8ZM310 550L444 751H515L357 550H310Z" />
<glyph unicode="&#xea;" glyph-name="ecircumflex" horiz-adv-x="543" d="M268 -8Q188 -8 135 25T61 119T53 266Q66 343 101 397T191 481T316 510Q384 510 428 481T490 399T498 276L494 248H95L101 293H464L446 279Q459 366 426 413T312 461Q254 461 213 436T146
367T113 267L111 248Q97 149 138 97T272 44Q318 44 362 58T442 106L467 61Q428 28 376 10T268 -8ZM191 550L322 751H384L472 550H427L350 705L237 550H191Z" />
<glyph unicode="&#xeb;" glyph-name="edieresis" horiz-adv-x="543" d="M268 -8Q188 -8 135 25T61 119T53 266Q66 343 101 397T191 481T316 510Q384 510 428 481T490 399T498 276L494 248H95L101 293H464L446 279Q459 366 426 413T312 461Q254 461 213 436T146
367T113 267L111 248Q97 149 138 97T272 44Q318 44 362 58T442 106L467 61Q428 28 376 10T268 -8ZM391 615L402 687H476L464 615H391ZM224 615L235 687H308L297 615H224Z" />
<glyph unicode="&#xec;" glyph-name="igrave" horiz-adv-x="228" d="M43 0L123 501H184L104 0H43ZM136 550L-5 751H64L183 550H136Z" />
<glyph unicode="&#xed;" glyph-name="iacute" horiz-adv-x="228" d="M43 0L123 501H184L104 0H43ZM138 550L272 751H343L185 550H138Z" />
<glyph unicode="&#xee;" glyph-name="icircumflex" horiz-adv-x="228" d="M43 0L123 501H184L104 0H43ZM19 550L150 751H212L300 550H255L178 705L65 550H19Z" />
<glyph unicode="&#xef;" glyph-name="idieresis" horiz-adv-x="228" d="M43 0L123 501H184L104 0H43ZM219 615L230 687H304L292 615H219ZM52 615L63 687H136L125 615H52Z" />
<glyph unicode="&#xf0;" glyph-name="eth" horiz-adv-x="566" d="M246 -8Q176 -8 127 21T58 106T49 237Q60 304 94 354T182 433T303 461Q380 461 428 421T484 299H463Q478 392 456 475T372 617L392 616L184 535L169 572L353 644L354 631Q326 653 293 670T221 698L240
742Q293 728 335 706T411 656L392 659L515 707L530 670L426 629L427 640Q469 595 493 537T523 411T517 268Q496 134 427 63T246 -8ZM248 44Q326 44 379 92T446 226Q459 311 422 359T306 408Q228 408 176 362T109 227Q95 140 134 92T248 44Z" />
<glyph unicode="&#xf1;" glyph-name="ntilde" horiz-adv-x="578" d="M43 0L105 389Q109 416 111 444T115 501H174L165 386L151 385Q181 446 234 478T357 510Q450 510 485 458T506 308L457 0H396L445 306Q458 388 432 422T339 457Q262 457 213 411T150 289L104
0H43ZM206 592L167 595Q178 656 206 689T277 722Q303 722 320 708T353 678Q367 663 381 652T411 641Q463 641 481 725L520 722Q510 661 482 628T411 595Q386 595 367 609T333 640Q320 654 307 665T276 676Q224 676 206 592Z" />
<glyph unicode="&#xf2;" glyph-name="ograve" horiz-adv-x="562" d="M246 -8Q174 -8 126 23T58 115T52 262Q65 342 101 397T192 481T315 510Q388 510 435 479T503 387T509 240Q496 159 459 104T368 21T246 -8ZM251 44Q325 44 379 96T449 250Q465 351 427 404T310
458Q235 458 182 405T113 252Q97 150 134 97T251 44ZM304 550L163 751H232L351 550H304Z" />
<glyph unicode="&#xf3;" glyph-name="oacute" horiz-adv-x="562" d="M246 -8Q174 -8 126 23T58 115T52 262Q65 342 101 397T192 481T315 510Q388 510 435 479T503 387T509 240Q496 159 459 104T368 21T246 -8ZM251 44Q325 44 379 96T449 250Q465 351 427 404T310
458Q235 458 182 405T113 252Q97 150 134 97T251 44ZM306 550L440 751H511L353 550H306Z" />
<glyph unicode="&#xf4;" glyph-name="ocircumflex" horiz-adv-x="562" d="M246 -8Q174 -8 126 23T58 115T52 262Q65 342 101 397T192 481T315 510Q388 510 435 479T503 387T509 240Q496 159 459 104T368 21T246 -8ZM251 44Q325 44 379 96T449 250Q465 351 427
404T310 458Q235 458 182 405T113 252Q97 150 134 97T251 44ZM187 550L318 751H380L468 550H423L346 705L233 550H187Z" />
<glyph unicode="&#xf5;" glyph-name="otilde" horiz-adv-x="562" d="M246 -8Q174 -8 126 23T58 115T52 262Q65 342 101 397T192 481T315 510Q388 510 435 479T503 387T509 240Q496 159 459 104T368 21T246 -8ZM251 44Q325 44 379 96T449 250Q465 351 427 404T310
458Q235 458 182 405T113 252Q97 150 134 97T251 44ZM200 592L161 595Q172 656 200 689T271 722Q297 722 314 708T347 678Q361 663 375 652T405 641Q457 641 475 725L514 722Q504 661 476 628T405 595Q380 595 361 609T327 640Q314 654 301 665T270 676Q218 676
200 592Z" />
<glyph unicode="&#xf6;" glyph-name="odieresis" horiz-adv-x="562" d="M246 -8Q174 -8 126 23T58 115T52 262Q65 342 101 397T192 481T315 510Q388 510 435 479T503 387T509 240Q496 159 459 104T368 21T246 -8ZM251 44Q325 44 379 96T449 250Q465 351 427 404T310
458Q235 458 182 405T113 252Q97 150 134 97T251 44ZM387 615L398 687H472L460 615H387ZM220 615L231 687H304L293 615H220Z" />
<glyph unicode="&#xf7;" glyph-name="divide" horiz-adv-x="600" d="M54 262L61 312H556L549 262H54ZM223 48L236 126H314L300 48H223ZM286 447L299 525H376L364 447H286Z" />
<glyph unicode="&#xf8;" glyph-name="oslash" horiz-adv-x="562" d="M246 -8Q174 -8 126 23T58 115T52 262Q65 342 101 397T192 481T315 510Q388 510 435 479T503 387T509 240Q496 159 459 104T368 21T246 -8ZM251 44Q327 44 381 96T451 250Q468 351 429 404T310
458Q233 458 180 405T111 252Q95 151 132 98T251 44ZM107 -28L72 -1L458 528L492 502L107 -28Z" />
<glyph unicode="&#xf9;" glyph-name="ugrave" horiz-adv-x="569" d="M226 -8Q140 -8 98 40T71 194L120 501H181L133 198Q121 117 146 81T237 44Q311 44 359 91T419 216L464 501H525L446 0H386L404 118H419Q391 57 340 25T226 -8ZM307 551L166 752H235L354 551H307Z" />
<glyph unicode="&#xfa;" glyph-name="uacute" horiz-adv-x="569" d="M226 -8Q140 -8 98 40T71 194L120 501H181L133 198Q121 117 146 81T237 44Q311 44 359 91T419 216L464 501H525L446 0H386L404 118H419Q391 57 340 25T226 -8ZM309 551L443 752H514L356 551H309Z" />
<glyph unicode="&#xfb;" glyph-name="ucircumflex" horiz-adv-x="569" d="M226 -8Q140 -8 98 40T71 194L120 501H181L133 198Q121 117 146 81T237 44Q311 44 359 91T419 216L464 501H525L446 0H386L404 118H419Q391 57 340 25T226 -8ZM190 551L321 752H383L471
551H426L349 706L236 551H190Z" />
<glyph unicode="&#xfc;" glyph-name="udieresis" horiz-adv-x="569" d="M226 -8Q140 -8 98 40T71 194L120 501H181L133 198Q121 117 146 81T237 44Q311 44 359 91T419 216L464 501H525L446 0H386L404 118H419Q391 57 340 25T226 -8ZM390 616L401 688H475L463 616H390ZM223
616L234 688H307L296 616H223Z" />
<glyph unicode="&#xfd;" glyph-name="yacute" horiz-adv-x="525" d="M-15 -227L-26 -174Q23 -163 56 -148T115 -107T163 -45L198 15L195 -12L57 501H122L240 38H216L478 501H546L227 -48Q200 -94 173 -124T117 -175T56 -208T-15 -227ZM286 550L420 751H491L333 550H286Z" />
<glyph unicode="&#xfe;" glyph-name="thorn" horiz-adv-x="591" d="M9 -216L160 736H221L165 377L150 376Q177 438 229 474T353 510Q423 510 469 478T534 386T539 240Q520 119 451 56T283 -8Q214 -8 170 27T114 125H125L70 -216H9ZM281 44Q357 44 409 96T478 250Q495
351 458 404T341 458Q266 458 212 405T142 252Q127 150 165 97T281 44Z" />
<glyph unicode="&#xff;" glyph-name="ydieresis" horiz-adv-x="525" d="M-15 -227L-26 -174Q23 -163 56 -148T115 -107T163 -45L198 15L195 -12L57 501H122L240 38H216L478 501H546L227 -48Q200 -94 173 -124T117 -175T56 -208T-15 -227ZM367 615L378 687H452L440
615H367ZM200 615L211 687H284L273 615H200Z" />
<glyph unicode="&#x2013;" glyph-name="endash" horiz-adv-x="505" d="M0 253L7 295H512L505 253H0Z" />
<glyph unicode="&#x2014;" glyph-name="emdash" horiz-adv-x="1010" d="M0 253L7 295H1017L1010 253H0Z" />
<glyph unicode="&#x2018;" glyph-name="quoteleft" horiz-adv-x="219" d="M108 519L120 589Q125 614 131 634T151 673T186 710L214 681Q187 656 178 637T166 593L145 605H207L194 519H108Z" />
<glyph unicode="&#x2019;" glyph-name="quoteright" horiz-adv-x="219" d="M146 513L118 543Q145 569 154 588T167 630L187 619H125L138 705H224L212 635Q209 611 202 590T182 551T146 513Z" />
<glyph unicode="&#x201a;" glyph-name="quotesinglbase" horiz-adv-x="219" d="M48 -106L20 -77Q48 -51 56 -31T69 11L89 0H27L41 86H126L114 15Q111 -9 104 -29T85 -68T48 -106Z" />
<glyph unicode="&#x201c;" glyph-name="quotedblleft" horiz-adv-x="373" d="M108 519L120 589Q125 614 131 634T151 673T186 710L214 681Q187 656 178 637T166 593L145 605H207L194 519H108ZM262 519L274 589Q279 614 285 634T305 673T340 710L368 681Q341 656
332 637T320 593L299 605H361L348 519H262Z" />
<glyph unicode="&#x201d;" glyph-name="quotedblright" horiz-adv-x="373" d="M146 513L118 543Q145 569 154 588T167 630L187 619H125L138 705H224L212 635Q209 611 202 590T182 551T146 513ZM300 513L272 543Q299 569 308 588T321 630L341 619H279L292 705H378L366
635Q363 611 356 590T336 551T300 513Z" />
<glyph unicode="&#x201e;" glyph-name="quotedblbase" horiz-adv-x="373" d="M48 -106L20 -77Q48 -51 56 -31T69 11L89 0H27L41 86H126L114 15Q111 -9 104 -29T85 -68T48 -106ZM202 -106L174 -77Q202 -51 210 -31T223 11L243 0H181L195 86H280L268 15Q265 -9 258
-29T239 -68T202 -106Z" />
<glyph unicode="&#x2022;" glyph-name="bullet" horiz-adv-x="529" d="M266 88Q216 88 175 111T110 175T85 265Q85 311 108 351T172 417T265 443Q314 443 355 420T421 357T447 265Q447 216 423 176T357 112T266 88Z" />
<glyph unicode="&#x2039;" glyph-name="guilsinglleft" horiz-adv-x="250" d="M131 88L30 267L190 448H254L93 261L189 88H131Z" />
<glyph unicode="&#x203a;" glyph-name="guilsinglright" horiz-adv-x="250" d="M78 88H14L175 275L79 448H137L238 269L78 88Z" />
</font>
</defs>
</svg>
