<?xml version="1.0" standalone="no"?>
<!DOCTYPE svg PUBLIC "-//W3C//DTD SVG 1.1//EN" "http://www.w3.org/Graphics/SVG/1.1/DTD/svg11.dtd">
<svg xmlns="http://www.w3.org/2000/svg">
<defs >
<font id="Mulish" horiz-adv-x="581" ><font-face
    font-family="Mulish Light"
    units-per-em="1000"
    panose-1="0 0 0 0 0 0 0 0 0 0"
    ascent="1005"
    descent="-250"
    alphabetic="0" />
<glyph unicode=" " glyph-name="space" horiz-adv-x="255" />
<glyph unicode="!" glyph-name="exclam" horiz-adv-x="219" d="M91 173L72 705H148L129 173H91ZM67 0V86H152V0H67Z" />
<glyph unicode="&quot;" glyph-name="quotedbl" horiz-adv-x="366" d="M86 434L69 705H142L127 434H86ZM241 434L224 705H297L282 434H241Z" />
<glyph unicode="#" glyph-name="numbersign" horiz-adv-x="600" d="M90 0L127 187H26V236H136L185 477H47V527H195L231 705H284L248 527H420L455 705H509L473 527H574V477H463L414 236H554V187H405L367 0H313L351 187H180L144 0H90ZM190 236H361L410 477H238L190 236Z" />
<glyph unicode="$" glyph-name="dollar" horiz-adv-x="600" d="M283 -115V11L298 -4Q227 -4 164 16T51 81L77 132Q125 91 177 72T302 52Q393 52 438 89T483 184Q483 233 450 260T342 304L244 325Q154 344 111 389T67 508Q67 565 95 610T174 681T292 709L283 696V820H337V696L327
708Q379 707 433 686T527 621L503 571Q462 614 414 633T304 653Q223 653 175 614T126 508Q126 457 157 427T256 382L353 361Q451 341 498 300T545 187Q545 130 516 89T438 24T322 -4L337 12V-115H283Z" />
<glyph unicode="%" glyph-name="percent" horiz-adv-x="931" d="M284 0H227L648 705H705L284 0ZM227 282Q147 282 102 338T56 498Q56 600 102 656T227 713Q306 713 352 657T398 498Q398 395 352 339T227 282ZM227 329Q281 329 311 371T342 498Q342 581 312 623T227
666Q173 666 143 624T112 498Q112 413 142 371T227 329ZM705 -8Q625 -8 580 48T534 208Q534 310 580 366T705 423Q785 423 830 367T876 208Q876 105 831 49T705 -8ZM705 39Q759 39 789 81T820 208Q820 291 790 333T705 376Q652 376 622 334T591 208Q591 123 621
81T705 39Z" />
<glyph unicode="&amp;" glyph-name="ampersand" horiz-adv-x="663" d="M649 -8Q603 15 565 46T500 106H516Q475 52 414 22T280 -8Q210 -8 160 13T84 73T58 165Q58 233 98 281T214 381L246 402L238 390Q189 444 168 483T146 564Q146 609 166 642T224 694T313 713Q377
713 420 677T464 576Q464 541 450 510T401 448T307 379L309 395L511 172H497Q523 213 538 275T555 408H610Q608 325 588 254T535 129L533 150Q558 122 596 91T677 38L649 -8ZM281 44Q346 44 395 70T481 147L480 126L260 367L282 366L250 345Q204 314 175 287T133
232T119 167Q119 109 160 77T281 44ZM313 664Q264 664 234 637T204 564Q204 541 212 522T238 478T289 417L271 413Q344 460 376 495T409 571Q409 613 383 638T313 664Z" />
<glyph unicode="&apos;" glyph-name="quotesingle" horiz-adv-x="211" d="M86 434L69 705H142L127 434H86Z" />
<glyph unicode="(" glyph-name="parenleft" horiz-adv-x="300" d="M219 -180Q180 -105 155 -34T117 111T104 263Q104 342 116 415T154 559T219 705H271Q221 595 195 485T168 263Q168 152 194 42T271 -180H219Z" />
<glyph unicode=")" glyph-name="parenright" horiz-adv-x="300" d="M81 -180H29Q80 -70 106 41T133 262Q133 373 107 484T29 705H81Q121 630 146 559T184 414T196 262Q196 184 184 111T147 -33T81 -180Z" />
<glyph unicode="*" glyph-name="asterisk" horiz-adv-x="453" d="M132 371L92 400L192 531L34 579L51 627L205 572L200 736H251L247 571L404 627L419 579L261 531L361 400L320 371L227 508L132 371Z" />
<glyph unicode="+" glyph-name="plus" horiz-adv-x="600" d="M274 37V262H52V312H274V532H326V312H548V262H326V37H274Z" />
<glyph unicode="," glyph-name="comma" horiz-adv-x="219" d="M100 -106L69 -81Q93 -55 100 -33T107 11L121 0H67V86H152V22Q152 -13 141 -45T100 -106Z" />
<glyph unicode="-" glyph-name="hyphen" horiz-adv-x="424" d="M74 248V300H350V248H74Z" />
<glyph unicode="." glyph-name="period" horiz-adv-x="219" d="M67 0V86H152V0H67Z" />
<glyph unicode="/" glyph-name="slash" horiz-adv-x="272" d="M33 -54H-22L239 746H294L33 -54Z" />
<glyph unicode="0" glyph-name="zero" horiz-adv-x="600" d="M300 -8Q182 -8 119 84T56 352Q56 530 119 621T300 713Q419 713 481 622T544 353Q544 177 481 85T300 -8ZM300 47Q391 47 436 122T481 353Q481 511 436 584T300 658Q210 658 165 584T119 354Q119 197
164 122T300 47Z" />
<glyph unicode="1" glyph-name="one" horiz-adv-x="600" d="M135 0V55H302V651H337L150 532V596L319 705H364V55H522V0H135Z" />
<glyph unicode="2" glyph-name="two" horiz-adv-x="600" d="M90 0V46L347 316Q398 369 424 418T450 523Q450 589 410 623T292 657Q233 657 184 636T91 572L66 622Q105 663 166 688T296 713Q400 713 456 665T513 526Q513 460 480 399T386 274L153 36V55H544V0H90Z" />
<glyph unicode="3" glyph-name="three" horiz-adv-x="600" d="M300 -8Q229 -8 165 14T56 78L82 128Q133 86 185 67T299 48Q383 48 427 85T472 192Q472 260 426 295T292 331H189V385H288Q363 385 407 424T452 532Q452 592 412 624T296 657Q179 657 94 572L69 622Q109
665 170 689T299 713Q399 713 456 666T514 535Q514 469 477 422T375 358V369Q451 356 492 309T534 189Q534 97 472 45T300 -8Z" />
<glyph unicode="4" glyph-name="four" horiz-adv-x="600" d="M400 0V160H54V206L410 705H461V212H573V160H461V0H400ZM400 212V632H421L110 196V212H400Z" />
<glyph unicode="5" glyph-name="five" horiz-adv-x="600" d="M317 -8Q271 -8 228 2T146 31T78 78L104 128Q154 87 205 68T317 48Q398 48 444 93T491 211Q491 286 447 334T324 382Q269 382 226 360T151 290H102V705H511V651H163V345H145Q173 389 222 413T333 438Q401
438 450 410T526 333T553 215Q553 149 525 99T443 20T317 -8Z" />
<glyph unicode="6" glyph-name="six" horiz-adv-x="600" d="M322 -8Q196 -8 128 82T60 333Q60 456 94 540T192 669T345 713Q399 713 455 690T546 626L521 576Q483 617 438 637T344 657Q237 657 179 579T121 345V244H114Q120 304 148 347T223 414T327 438Q392 438
442 410T520 332T548 217Q548 152 519 101T439 21T322 -8ZM317 47Q367 47 405 68T465 127T487 215Q487 265 466 302T406 361T317 383Q267 383 229 362T169 303T148 215Q148 165 169 127T228 68T317 47Z" />
<glyph unicode="7" glyph-name="seven" horiz-adv-x="600" d="M125 0L475 682V650H71V705H529V659L193 0H125Z" />
<glyph unicode="8" glyph-name="eight" horiz-adv-x="600" d="M300 -8Q181 -8 116 43T51 185Q51 259 96 307T216 365V353Q148 367 108 414T68 527Q68 615 130 664T300 713Q409 713 471 664T533 527Q533 462 496 415T390 353V365Q464 355 506 307T549 185Q549 94
485 43T300 -8ZM300 45Q395 45 441 80T488 188Q488 260 442 295T300 330Q205 330 159 295T112 188Q112 116 159 81T300 45ZM300 384Q383 384 427 421T471 523Q471 588 427 624T300 660Q217 660 173 624T129 523Q129 458 173 421T300 384Z" />
<glyph unicode="9" glyph-name="nine" horiz-adv-x="600" d="M256 -8Q202 -8 146 16T54 79L80 129Q118 88 163 68T257 48Q363 48 421 126T479 360V461H487Q482 402 453 358T377 291T274 267Q209 267 159 295T81 373T52 488Q52 554 81 605T161 684T278 713Q405
713 473 624T541 372Q541 250 507 165T409 36T256 -8ZM284 322Q334 322 372 343T432 403T453 490Q453 540 432 578T373 637T284 659Q234 659 196 638T136 578T114 490Q114 441 135 403T195 344T284 322Z" />
<glyph unicode=":" glyph-name="colon" horiz-adv-x="219" d="M67 416V501H152V416H67ZM67 0V86H152V0H67Z" />
<glyph unicode=";" glyph-name="semicolon" horiz-adv-x="219" d="M100 -106L69 -81Q93 -55 100 -33T107 11L129 0H67V86H152V22Q152 -13 141 -45T100 -106ZM67 416V501H152V416H67Z" />
<glyph unicode="&lt;" glyph-name="less" horiz-adv-x="600" d="M547 35L52 262V312L547 539V483L84 271V303L547 92V35Z" />
<glyph unicode="=" glyph-name="equal" horiz-adv-x="600" d="M52 362V412H548V362H52ZM52 163V212H548V163H52Z" />
<glyph unicode="&gt;" glyph-name="greater" horiz-adv-x="600" d="M53 35V92L516 303V271L53 483V539L548 312V262L53 35Z" />
<glyph unicode="?" glyph-name="question" horiz-adv-x="440" d="M173 173V197Q173 249 193 296T266 402Q308 450 325 484T342 557Q342 604 308 631T215 658Q176 658 141 648T74 621V681Q106 696 143 704T218 713Q274 713 316 695T381 642T405 560Q405 528 396
499T365 440T310 372Q261 318 241 279T216 196L213 173H173ZM150 0V86H235V0H150Z" />
<glyph unicode="@" glyph-name="at" horiz-adv-x="971" d="M497 -163Q399 -163 320 -133T183 -45T96 93T65 274Q65 372 97 452T188 591T329 681T509 713Q628 713 717 667T856 538T906 344Q906 258 882 194T813 95T710 59Q650 59 620 94T598 188L611 175Q585 120
538 90T439 59Q361 59 318 106T275 238Q275 313 304 370T383 461T498 494Q555 494 591 467T638 390H629L646 485H700L652 218Q650 206 649 195T647 174Q647 139 663 122T714 104Q757 104 789 134T839 218T857 344Q857 441 813 513T691 626T508 666Q391 666 303
617T167 480T118 274Q118 153 164 66T296 -68T497 -115Q583 -115 653 -88T767 -12L796 -52Q747 -105 669 -134T497 -163ZM444 107Q493 107 532 135T593 212T615 325Q615 386 588 415T503 445Q454 445 415 419T354 346T331 239Q331 175 360 141T444 107Z" />
<glyph unicode="A" glyph-name="A" horiz-adv-x="728" d="M26 0L333 705H389L701 0H636L548 203L577 188H143L177 203L91 0H26ZM360 630L189 229L166 241H554L537 229L362 630H360Z" />
<glyph unicode="B" glyph-name="B" horiz-adv-x="676" d="M93 0V705H362Q473 705 533 658T594 521Q594 454 554 410T443 352V366Q521 358 566 313T611 192Q611 98 550 49T375 0H93ZM153 53H371Q452 53 500 84T549 191Q549 268 501 299T371 331H153V53ZM153 383H355Q442
383 487 417T532 518Q532 584 487 618T355 653H153V383Z" />
<glyph unicode="C" glyph-name="C" horiz-adv-x="684" d="M390 -8Q286 -8 214 35T103 160T65 353Q65 465 103 545T213 669T390 713Q466 713 525 690T628 620L602 570Q553 615 504 635T390 656Q263 656 197 577T131 353Q131 209 197 129T390 49Q455 49 504 69T602
135L628 85Q584 39 525 16T390 -8Z" />
<glyph unicode="D" glyph-name="D" horiz-adv-x="740" d="M93 0V705H316Q432 705 512 665T633 546T675 353Q675 239 634 160T512 41T316 0H93ZM155 55H311Q462 55 536 129T610 353Q610 503 536 577T311 651H155V55Z" />
<glyph unicode="E" glyph-name="E" horiz-adv-x="585" d="M93 0V705H531V652H153V384H509V331H153V53H531V0H93Z" />
<glyph unicode="F" glyph-name="F" horiz-adv-x="558" d="M93 0V705H521V652H155V383H500V330H155V0H93Z" />
<glyph unicode="G" glyph-name="G" horiz-adv-x="727" d="M409 -8Q295 -8 219 34T104 158T65 353Q65 465 105 545T219 669T399 713Q476 713 532 690T634 621L607 571Q574 602 544 620T479 647T399 656Q270 656 201 577T131 352Q131 204 199 126T410 48Q463 48
511 58T602 87L587 47V311H400V363H642V41Q602 20 538 6T409 -8Z" />
<glyph unicode="H" glyph-name="H" horiz-adv-x="762" d="M93 0V705H155V385H608V705H670V0H608V330H155V0H93Z" />
<glyph unicode="I" glyph-name="I" horiz-adv-x="247" d="M93 0V705H155V0H93Z" />
<glyph unicode="J" glyph-name="J" horiz-adv-x="314" d="M75 -186Q58 -186 40 -185T0 -178V-125Q19 -129 35 -131T65 -133Q111 -133 135 -104T160 -12V705H222V-13Q222 -68 206 -107T157 -166T75 -186Z" />
<glyph unicode="K" glyph-name="K" horiz-adv-x="619" d="M93 0V705H155V381H157L509 705H592L193 342L194 378L621 0H536L157 335H155V0H93Z" />
<glyph unicode="L" glyph-name="L" horiz-adv-x="538" d="M93 0V705H155V55H522V0H93Z" />
<glyph unicode="M" glyph-name="M" horiz-adv-x="853" d="M93 0V705H147L441 41H412L707 705H760V0H703V632H730L449 0H404L123 632H150V0H93Z" />
<glyph unicode="N" glyph-name="N" horiz-adv-x="743" d="M93 0V705H143L615 73H593V705H650V0H601L129 632H150V0H93Z" />
<glyph unicode="O" glyph-name="O" horiz-adv-x="765" d="M65 353Q65 465 102 545T211 669T382 713Q480 713 551 670T661 546T700 354Q700 242 661 161T551 36T382 -8Q283 -8 212 36T103 161T65 353ZM131 353Q131 209 195 129T382 48Q501 48 568 128T635 353Q635
498 569 577T382 657Q259 657 195 578T131 353Z" />
<glyph unicode="P" glyph-name="P" horiz-adv-x="644" d="M93 0V705H367Q476 705 535 653T595 507Q595 415 536 362T367 309H155V0H93ZM155 363H363Q446 363 489 400T532 507Q532 576 489 614T363 652H155V363Z" />
<glyph unicode="Q" glyph-name="Q" horiz-adv-x="765" d="M574 -191Q545 -172 515 -141T458 -74T411 0L470 19Q496 -33 536 -76T617 -150L574 -191ZM65 353Q65 465 102 545T211 669T382 713Q480 713 551 670T661 546T700 354Q700 242 661 161T551 36T382 -8Q283
-8 212 36T103 161T65 353ZM131 353Q131 209 195 129T382 48Q501 48 568 128T635 353Q635 498 569 577T382 657Q259 657 195 578T131 353Z" />
<glyph unicode="R" glyph-name="R" horiz-adv-x="688" d="M93 0V705H371Q480 705 540 654T600 510Q600 450 573 408T498 343T387 320L406 331H420Q461 331 493 312T544 245L642 0H574L482 234Q463 285 427 299T335 314H155V0H93ZM155 366H363Q448 366 492 403T537
509Q537 579 493 615T363 652H155V366Z" />
<glyph unicode="S" glyph-name="S" horiz-adv-x="613" d="M316 -8Q231 -8 166 14T50 78L76 129Q112 101 146 83T222 57T315 48Q408 48 455 84T502 181Q502 233 470 260T356 304L254 325Q157 345 110 389T62 509Q62 571 94 617T183 688T315 713Q390 713 451 691T557
624L532 574Q485 618 433 637T315 657Q228 657 177 618T126 511Q126 457 158 427T264 382L367 361Q470 340 518 300T566 184Q566 127 536 84T449 16T316 -8Z" />
<glyph unicode="T" glyph-name="T" horiz-adv-x="597" d="M266 0V651H10V705H583V651H328V0H266Z" />
<glyph unicode="U" glyph-name="U" horiz-adv-x="726" d="M364 -8Q223 -8 156 64T88 274V705H150V279Q150 164 201 106T364 48Q468 48 522 106T577 279V705H639V274Q639 136 569 64T364 -8Z" />
<glyph unicode="V" glyph-name="V" horiz-adv-x="687" d="M312 0L7 705H74L357 44H330L615 705H680L373 0H312Z" />
<glyph unicode="W" glyph-name="W" horiz-adv-x="1108" d="M282 0L38 705H103L329 44H296L531 705H583L807 44H777L1008 705H1070L823 0H764L547 642H567L339 0H282Z" />
<glyph unicode="X" glyph-name="X" horiz-adv-x="644" d="M17 0L294 371V351L31 705H104L333 395H314L539 705H613L350 351V371L627 0H553L309 331H335L91 0H17Z" />
<glyph unicode="Y" glyph-name="Y" horiz-adv-x="597" d="M267 0V328L282 281L-5 705H67L309 340H291L533 705H602L315 281L329 328V0H267Z" />
<glyph unicode="Z" glyph-name="Z" horiz-adv-x="590" d="M43 0V46L483 678V650H43V705H542V660L101 28V55H553V0H43Z" />
<glyph unicode="[" glyph-name="bracketleft" horiz-adv-x="300" d="M108 -180V705H294V655H169V-130H294V-180H108Z" />
<glyph unicode="\" glyph-name="backslash" horiz-adv-x="272" d="M239 -54L-22 746H33L294 -54H239Z" />
<glyph unicode="]" glyph-name="bracketright" horiz-adv-x="300" d="M6 -180V-130H131V655H6V705H191V-180H6Z" />
<glyph unicode="^" glyph-name="asciicircum" horiz-adv-x="600" d="M46 142L275 628H324L554 142H499L284 597H315L101 142H46Z" />
<glyph unicode="_" glyph-name="underscore" horiz-adv-x="505" d="M6 -43V0H499V-43H6Z" />
<glyph unicode="`" glyph-name="grave" horiz-adv-x="500" d="M227 550L100 751H170L273 550H227Z" />
<glyph unicode="a" glyph-name="a" horiz-adv-x="591" d="M273 -8Q205 -8 155 23T78 112T51 251Q51 332 78 389T156 478T273 510Q342 510 392 474T459 376H447L457 501H516Q513 472 511 444T508 389V0H447V125H458Q442 63 392 28T273 -8ZM281 44Q358 44 403 97T448
251Q448 352 403 405T281 458Q204 458 159 405T113 251Q113 150 158 97T281 44Z" />
<glyph unicode="b" glyph-name="b" horiz-adv-x="591" d="M319 -8Q249 -8 200 27T133 126H144V0H83V736H144V377H133Q150 439 199 474T319 510Q387 510 436 479T513 390T541 250Q541 170 513 112T436 23T319 -8ZM310 44Q387 44 433 96T479 250Q479 351 433 404T310
458Q234 458 189 405T143 251Q143 150 188 97T310 44Z" />
<glyph unicode="c" glyph-name="c" horiz-adv-x="491" d="M285 -8Q214 -8 161 23T80 114T51 254Q51 335 80 392T161 480T285 510Q333 510 377 492T451 442L426 397Q395 428 359 442T287 457Q205 457 159 405T113 253Q113 153 159 99T287 44Q321 44 357 58T426
104L451 59Q421 27 376 10T285 -8Z" />
<glyph unicode="d" glyph-name="d" horiz-adv-x="591" d="M272 -8Q205 -8 155 23T78 112T51 251Q51 332 78 389T155 478T272 510Q341 510 391 475T459 377H447V736H508V0H448V126H459Q442 63 392 28T272 -8ZM280 44Q356 44 402 97T449 251Q449 352 403 405T280
458Q204 458 159 405T113 251Q113 150 158 97T280 44Z" />
<glyph unicode="e" glyph-name="e" horiz-adv-x="543" d="M298 -8Q184 -8 118 60T51 249Q51 329 80 387T163 477T286 510Q353 510 399 482T470 401T495 276V248H95V292H457L440 279Q440 364 401 412T285 461Q203 461 157 405T111 255V248Q111 148 160 96T299 44Q345
44 385 58T462 106L487 61Q455 28 404 10T298 -8Z" />
<glyph unicode="f" glyph-name="f" horiz-adv-x="324" d="M107 0V452H7V501H122L107 485V572Q107 652 147 696T261 740Q280 740 300 737T333 728V674Q321 679 304 683T268 687Q235 687 213 673T179 633T167 565V485L157 501H311V452H168V0H107Z" />
<glyph unicode="g" glyph-name="g" horiz-adv-x="595" d="M299 -223Q236 -223 182 -206T84 -155L106 -108Q138 -131 167 -144T229 -164T298 -171Q374 -171 413 -131T452 -14V145H463Q447 82 396 47T276 11Q207 11 157 41T79 128T51 261Q51 337 78 393T156 479T276
510Q345 510 396 475T463 375L452 386L461 501H521Q517 472 515 444T513 389V-5Q513 -113 459 -168T299 -223ZM283 63Q361 63 406 115T452 261Q452 354 407 406T283 458Q205 458 159 406T113 261Q113 167 159 115T283 63Z" />
<glyph unicode="h" glyph-name="h" horiz-adv-x="578" d="M83 0V736H144V385H132Q153 446 203 478T319 510Q410 510 453 462T497 318V0H436V313Q436 389 406 423T310 457Q235 457 190 411T144 289V0H83Z" />
<glyph unicode="i" glyph-name="i" horiz-adv-x="228" d="M83 0V501H144V0H83ZM73 624V700H155V624H73Z" />
<glyph unicode="j" glyph-name="j" horiz-adv-x="228" d="M11 -219Q-1 -219 -21 -216T-54 -207V-154Q-42 -158 -26 -161T4 -165Q49 -165 69 -137T90 -45V501H151V-53Q151 -135 116 -177T11 -219ZM80 624V700H161V624H80Z" />
<glyph unicode="k" glyph-name="k" horiz-adv-x="498" d="M83 0V736H144V274H146L393 501H472L188 240L191 277L502 0H419L146 241H144V0H83Z" />
<glyph unicode="l" glyph-name="l" horiz-adv-x="228" d="M83 0V736H144V0H83Z" />
<glyph unicode="m" glyph-name="m" horiz-adv-x="869" d="M83 0V389Q83 416 81 444T75 501H135L144 386H132Q151 445 195 477T302 510Q366 510 406 479T459 383H444Q462 441 510 475T623 510Q705 510 747 463T789 316V0H728V312Q728 388 701 422T613 457Q545 457
506 411T466 287V0H405V312Q405 388 378 422T291 457Q223 457 184 411T144 287V0H83Z" />
<glyph unicode="n" glyph-name="n" horiz-adv-x="578" d="M83 0V389Q83 416 81 444T75 501H135L144 386H132Q154 446 203 478T317 510Q406 510 451 463T497 316V0H436V311Q436 388 405 422T309 457Q233 457 189 411T144 287V0H83Z" />
<glyph unicode="o" glyph-name="o" horiz-adv-x="562" d="M281 -8Q210 -8 159 23T79 112T51 251Q51 331 79 389T158 478T281 510Q351 510 402 479T482 389T511 251Q511 170 483 112T403 23T281 -8ZM281 44Q357 44 403 97T449 251Q449 352 403 405T281 458Q204
458 159 405T113 251Q113 150 158 97T281 44Z" />
<glyph unicode="p" glyph-name="p" horiz-adv-x="591" d="M83 -216V389Q83 416 81 444T75 501H135L145 376H133Q150 438 199 474T318 510Q386 510 435 479T513 390T541 251Q541 170 514 112T436 23T318 -8Q249 -8 200 27T133 125H144V-216H83ZM310 44Q387 44 433
97T479 251Q479 352 433 405T310 458Q234 458 189 405T143 251Q143 150 188 97T310 44Z" />
<glyph unicode="q" glyph-name="q" horiz-adv-x="591" d="M447 -216V125H458Q442 63 392 28T273 -8Q205 -8 155 23T78 112T51 251Q51 332 78 389T156 478T273 510Q342 510 392 474T459 376H447L457 501H516Q513 472 511 444T508 389V-216H447ZM281 44Q358 44 403
97T448 251Q448 352 403 405T281 458Q204 458 159 405T113 251Q113 150 158 97T281 44Z" />
<glyph unicode="r" glyph-name="r" horiz-adv-x="349" d="M82 0V384Q82 413 81 442T75 501H135L143 386L131 385Q141 427 167 454T227 496T297 510Q310 510 321 509T343 504L341 449Q329 453 317 454T291 455Q246 455 213 433T161 377T143 308V0H82Z" />
<glyph unicode="s" glyph-name="s" horiz-adv-x="494" d="M245 -8Q187 -8 137 9T53 56L77 101Q114 71 157 57T247 42Q311 42 344 66T377 131Q377 163 356 183T286 213L196 232Q132 247 101 280T69 363Q69 406 91 439T156 491T255 510Q309 510 354 493T429 443L403
399Q373 429 336 444T256 459Q194 459 162 434T130 366Q130 334 150 314T213 283L303 263Q371 248 404 217T437 135Q437 91 413 59T346 9T245 -8Z" />
<glyph unicode="t" glyph-name="t" horiz-adv-x="337" d="M245 -8Q178 -8 143 32T107 155V452H7V501H107V641L168 661V501H316V452H168V164Q168 101 188 73T252 45Q272 45 287 49T314 58V4Q302 -1 283 -4T245 -8Z" />
<glyph unicode="u" glyph-name="u" horiz-adv-x="569" d="M259 -8Q171 -8 126 39T80 186V501H141V190Q141 114 172 79T267 44Q338 44 381 90T425 214V501H486V0H426V118H439Q418 57 371 25T259 -8Z" />
<glyph unicode="v" glyph-name="v" horiz-adv-x="525" d="M231 0L18 501H86L276 38H250L442 501H507L294 0H231Z" />
<glyph unicode="w" glyph-name="w" horiz-adv-x="863" d="M216 0L35 501H101L262 36H235L402 501H464L628 36H602L765 501H828L646 0H583L415 471H450L280 0H216Z" />
<glyph unicode="x" glyph-name="x" horiz-adv-x="528" d="M21 0L241 275V242L32 501H107L275 288H253L421 501H494L289 244V272L507 0H431L253 227H275L95 0H21Z" />
<glyph unicode="y" glyph-name="y" horiz-adv-x="525" d="M60 -227L45 -174Q92 -163 123 -148T175 -107T212 -45L238 15L237 -12L18 501H86L277 38H252L441 501H507L275 -48Q256 -94 234 -124T185 -175T128 -208T60 -227Z" />
<glyph unicode="z" glyph-name="z" horiz-adv-x="515" d="M50 0V42L399 469L400 452H50V501H458V459L106 31L105 49H469V0H50Z" />
<glyph unicode="{" glyph-name="braceleft" horiz-adv-x="338" d="M241 -180Q196 -180 173 -156T149 -86V156Q149 198 132 216T72 237L48 239V287L72 289Q113 291 131 309T149 370V611Q149 657 172 681T241 705H332V655H254Q232 655 221 643T209 608V364Q209 335
197 311T165 274T118 261V265Q144 265 164 252T197 215T209 162V-83Q209 -106 220 -118T254 -130H332V-180H241Z" />
<glyph unicode="|" glyph-name="bar" horiz-adv-x="256" d="M98 -187V712H159V-187H98Z" />
<glyph unicode="}" glyph-name="braceright" horiz-adv-x="338" d="M6 -180V-130H84Q107 -130 118 -118T129 -83V161Q129 191 141 214T173 251T220 264V260Q194 260 174 273T141 310T129 364V608Q129 631 118 643T84 655H6V705H97Q142 705 165 681T189 611V369Q189
328 206 309T266 288L290 287V238L266 236Q225 234 207 216T189 155V-86Q189 -132 166 -156T97 -180H6Z" />
<glyph unicode="~" glyph-name="asciitilde" horiz-adv-x="600" d="M419 221Q393 221 363 230T288 265Q245 289 223 296T184 304Q126 304 96 237L52 258Q74 305 106 329T181 354Q207 354 235 345T309 312Q349 291 372 281T416 270Q475 270 504 337L548 316Q526
268 495 245T419 221Z" />
<glyph unicode="&#xa0;" glyph-name="uni00A0" horiz-adv-x="255" />
<glyph unicode="&#xa1;" glyph-name="exclamdown" horiz-adv-x="219" d="M72 -180L91 329H129L148 -180H72ZM67 416V501H152V416H67Z" />
<glyph unicode="&#xa2;" glyph-name="cent" horiz-adv-x="600" d="M289 -115V12L302 -6Q241 -1 195 31T122 119T95 243Q95 311 120 364T192 451T302 490L289 466V605H343V468L330 491Q376 491 422 474T495 427L471 382Q443 410 406 424T329 439Q251 439 205 386T158
243Q158 153 203 100T328 47Q368 47 405 61T471 103L495 59Q466 28 420 11T328 -7L343 11V-115H289Z" />
<glyph unicode="&#xa3;" glyph-name="sterling" horiz-adv-x="600" d="M48 0V45Q98 66 127 95T157 171V331H47V377H157V516Q157 580 180 624T251 690T369 713Q426 713 477 693T566 632L538 582Q506 621 464 639T364 658Q292 658 256 623T219 519V377H411V331H219V192Q219
133 194 99T129 48V54H561V0H48Z" />
<glyph unicode="&#xa4;" glyph-name="currency" horiz-adv-x="600" d="M76 -24L37 16L111 92Q87 123 74 162T60 245Q60 289 73 328T111 399L37 474L76 514L150 438Q181 464 219 478T301 493Q343 493 381 479T449 440L521 514L561 474L488 400Q513 368 527 329T541
245Q541 201 527 162T488 90L561 16L521 -24L449 51Q418 25 381 11T301 -3Q258 -3 220 11T150 51L76 -24ZM300 53Q350 53 391 79T455 148T479 245Q479 298 456 341T391 411T300 437Q250 437 209 411T144 342T120 245Q120 192 144 149T209 79T300 53Z" />
<glyph unicode="&#xa5;" glyph-name="yen" horiz-adv-x="600" d="M269 0V184H74V228H269V335H74V380H244V371L0 705H71L309 376H291L529 705H600L357 371V380H526V335H331V228H526V184H331V0H269Z" />
<glyph unicode="&#xa6;" glyph-name="brokenbar" horiz-adv-x="256" d="M98 372V712H159V372H98ZM98 -187V153H159V-187H98Z" />
<glyph unicode="&#xa7;" glyph-name="section" horiz-adv-x="530" d="M239 -188Q176 -188 125 -171T40 -123L65 -78Q85 -96 113 -110T175 -131T242 -138Q309 -138 350 -106T391 -15Q391 27 369 57T290 113L185 161Q128 188 96 213T51 268T37 334Q37 374 57 411T108
471L101 453Q92 466 86 486T79 536Q79 592 106 631T181 691T288 713Q347 713 397 697T479 648L454 603Q423 631 378 646T285 662Q222 662 182 631T141 539Q141 498 163 468T242 412L347 363Q404 337 436 311T481 256T494 190Q494 151 475 114T424 53L430 71Q439
59 445 39T452 -12Q452 -67 425 -106T350 -167T239 -188ZM95 342Q95 303 119 274T212 212L302 170Q344 150 372 130T415 89H393Q437 126 437 183Q437 222 413 251T320 312L230 354Q188 375 160 395T117 436H138Q118 418 107 394T95 342Z" />
<glyph unicode="&#xa8;" glyph-name="dieresis" horiz-adv-x="500" d="M297 615V687H370V615H297ZM130 615V687H203V615H130Z" />
<glyph unicode="&#xa9;" glyph-name="copyright" horiz-adv-x="815" d="M408 -8Q332 -8 266 19T151 96T75 211T47 353Q47 430 74 495T151 609T265 685T408 713Q485 713 550 686T664 610T740 496T768 353Q768 277 741 211T665 96T551 20T408 -8ZM419 137Q324 137
270 197T215 356Q215 454 269 511T419 568Q459 568 497 553T561 513L540 471Q512 497 481 508T420 520Q350 520 311 477T271 355Q271 277 310 232T420 186Q450 186 481 197T540 235L561 192Q536 167 497 152T419 137ZM408 31Q476 31 534 55T635 124T703 226T727
353Q727 421 703 479T636 581T534 649T408 674Q340 674 282 650T180 582T112 480T88 353Q88 285 112 227T179 124T281 56T408 31Z" />
<glyph unicode="&#xaa;" glyph-name="ordfeminine" horiz-adv-x="319" d="M132 412Q86 412 56 437T26 501Q26 546 67 566T176 586H240V553H178Q125 553 99 541T72 502Q72 479 88 464T141 448Q181 448 207 474T233 547V605Q233 640 214 658T158 676Q130 676 103
669T52 646L38 682Q62 698 94 705T159 713Q278 713 278 603V417H234V471H232Q215 440 191 426T132 412Z" />
<glyph unicode="&#xab;" glyph-name="guillemotleft" horiz-adv-x="421" d="M154 88L28 268L154 448H210L94 268L210 88H154ZM325 88L199 268L325 448H381L265 268L381 88H325Z" />
<glyph unicode="&#xac;" glyph-name="logicalnot" horiz-adv-x="600" d="M495 152V364H52V414H548V152H495Z" />
<glyph unicode="&#xad;" glyph-name="uni00AD" horiz-adv-x="424" d="M74 248V300H350V248H74Z" />
<glyph unicode="&#xae;" glyph-name="registered" horiz-adv-x="815" d="M408 -8Q332 -8 266 19T151 96T75 211T47 353Q47 430 74 495T151 609T265 685T408 713Q485 713 550 686T664 610T740 496T768 353Q768 277 741 211T665 96T551 20T408 -8ZM408 31Q476 31
534 55T635 124T703 226T727 353Q727 421 703 479T636 581T534 649T408 674Q340 674 282 650T180 582T112 480T88 353Q88 285 112 227T179 124T281 56T408 31ZM268 142V563H435Q502 563 537 532T573 442Q573 385 537 355T436 324L443 334Q473 334 493 321T526 276L579
142H523L471 274Q460 301 440 310T391 319H310L322 328V142H268ZM322 364H428Q475 364 497 382T520 441Q520 480 498 499T428 518H322V364Z" />
<glyph unicode="&#xaf;" glyph-name="overscore" horiz-adv-x="500" d="M106 629V675H394V629H106Z" />
<glyph unicode="&#xb0;" glyph-name="degree" horiz-adv-x="367" d="M184 424Q143 424 110 443T58 495T39 569Q39 610 58 642T110 694T184 713Q225 713 257 695T308 643T327 569Q327 528 309 495T258 443T184 424ZM184 471Q226 471 251 498T277 569Q277 611 252
638T184 666Q143 666 117 639T90 569Q90 526 116 499T184 471Z" />
<glyph unicode="&#xb1;" glyph-name="plusminus" horiz-adv-x="600" d="M274 121V300H52V350H274V529H326V350H548V300H326V121H274ZM52 0V50H548V0H52Z" />
<glyph unicode="&#xb2;" glyph-name="uni00B2" horiz-adv-x="380" d="M54 282V321L204 475Q234 508 248 534T262 589Q262 661 182 661Q151 661 119 649T63 614L40 654Q67 680 106 694T188 709Q249 709 284 678T319 593Q319 559 302 526T250 456L116 320V330H339V282H54Z" />
<glyph unicode="&#xb3;" glyph-name="uni00B3" horiz-adv-x="380" d="M186 279Q140 279 100 293T34 333L56 372Q80 350 113 338T184 325Q224 325 250 343T276 401Q276 440 249 456T176 473H100V519H166Q211 519 237 538T264 595Q264 627 242 645T180 663Q148 663
116 650T59 614L36 655Q63 680 102 694T186 709Q247 709 282 680T318 600Q318 559 294 533T236 496V503Q278 495 304 469T330 397Q330 340 289 310T186 279Z" />
<glyph unicode="&#xb4;" glyph-name="acute" horiz-adv-x="500" d="M227 550L330 751H400L273 550H227Z" />
<glyph unicode="&#xb5;" glyph-name="uni00B5" horiz-adv-x="566" d="M80 -212V501H141V186Q141 113 171 80T264 46Q335 46 379 91T423 212V501H484V0H424V117H434Q416 56 371 24T265 -8Q216 -8 179 9T121 74H135L141 -212H80Z" />
<glyph unicode="&#xb6;" glyph-name="paragraph" horiz-adv-x="584" d="M247 -180V323Q187 323 143 347T74 415T49 514Q49 570 73 613T143 680T249 705H492V-180H438V655H301V-180H247Z" />
<glyph unicode="&#xb7;" glyph-name="middot" horiz-adv-x="222" d="M68 231V316H154V231H68Z" />
<glyph unicode="&#xb8;" glyph-name="cedilla" horiz-adv-x="500" d="M254 -191Q229 -191 208 -186T170 -172L181 -133Q200 -142 216 -146T255 -150Q282 -150 298 -140T315 -110Q315 -80 277 -80Q266 -80 255 -81T228 -89L212 -75L226 20H271L258 -55L237 -51Q249
-48 260 -46T282 -44Q316 -44 339 -61T363 -111Q363 -146 333 -168T254 -191Z" />
<glyph unicode="&#xb9;" glyph-name="uni00B9" horiz-adv-x="380" d="M91 282V330H188V658H214L99 586V642L199 705H241V330H327V282H91Z" />
<glyph unicode="&#xba;" glyph-name="ordmasculine" horiz-adv-x="334" d="M167 412Q126 412 95 430T45 483T26 563Q26 609 44 642T94 694T167 713Q209 713 240 695T290 643T309 563Q309 518 291 484T241 431T167 412ZM167 450Q211 450 236 479T262 563Q262 618
237 646T167 675Q124 675 98 647T72 563Q72 508 98 479T167 450Z" />
<glyph unicode="&#xbb;" glyph-name="guillemotright" horiz-adv-x="421" d="M96 88H40L156 268L40 448H96L222 268L96 88ZM267 88H211L327 268L211 448H267L393 268L267 88Z" />
<glyph unicode="&#xbc;" glyph-name="onequarter" horiz-adv-x="888" d="M91 282V330H188V658H214L99 586V642L199 705H241V330H327V282H91ZM279 -8H223L652 713H709L279 -8ZM750 0V90H546V131L756 423H801V136H868V90H801V0H750ZM750 136V359H760L588 121V136H750Z" />
<glyph unicode="&#xbd;" glyph-name="onehalf" horiz-adv-x="930" d="M91 282V330H188V658H214L99 586V642L199 705H241V330H327V282H91ZM279 -8H223L652 713H709L279 -8ZM604 0V39L754 193Q784 226 798 252T812 307Q812 379 732 379Q701 379 669 367T613 332L590
372Q617 398 656 412T738 427Q799 427 834 396T869 311Q869 277 852 244T800 174L666 38V48H889V0H604Z" />
<glyph unicode="&#xbe;" glyph-name="threequarters" horiz-adv-x="888" d="M186 279Q140 279 100 293T34 333L56 372Q80 350 113 338T184 325Q224 325 250 343T276 401Q276 440 249 456T176 473H100V519H166Q211 519 237 538T264 595Q264 627 242 645T180 663Q148
663 116 650T59 614L36 655Q63 680 102 694T186 709Q247 709 282 680T318 600Q318 559 294 533T236 496V503Q278 495 304 469T330 397Q330 340 289 310T186 279ZM279 -8H223L652 713H709L279 -8ZM750 0V90H546V131L756 423H801V136H868V90H801V0H750ZM750 136V359H760L588
121V136H750Z" />
<glyph unicode="&#xbf;" glyph-name="questiondown" horiz-adv-x="440" d="M222 -211Q167 -211 125 -193T59 -139T35 -58Q35 -25 44 3T74 61T130 130Q179 184 199 223T225 306L227 328H268V305Q268 253 248 206T174 100Q132 53 115 18T98 -55Q98 -102 132 -129T225
-156Q264 -156 299 -146T366 -119V-179Q335 -194 298 -202T222 -211ZM290 500V415H205V500H290Z" />
<glyph unicode="&#xc0;" glyph-name="Agrave" horiz-adv-x="728" d="M26 0L333 705H389L701 0H636L548 203L577 188H143L177 203L91 0H26ZM360 630L189 229L166 241H554L537 229L362 630H360ZM337 765L196 936H269L387 765H337Z" />
<glyph unicode="&#xc1;" glyph-name="Aacute" horiz-adv-x="728" d="M26 0L333 705H389L701 0H636L548 203L577 188H143L177 203L91 0H26ZM360 630L189 229L166 241H554L537 229L362 630H360ZM337 765L455 936H528L387 765H337Z" />
<glyph unicode="&#xc2;" glyph-name="Acircumflex" horiz-adv-x="728" d="M26 0L333 705H389L701 0H636L548 203L577 188H143L177 203L91 0H26ZM360 630L189 229L166 241H554L537 229L362 630H360ZM209 765L331 936H393L515 765H466L362 891L258 765H209Z" />
<glyph unicode="&#xc3;" glyph-name="Atilde" horiz-adv-x="728" d="M26 0L333 705H389L701 0H636L548 203L577 188H143L177 203L91 0H26ZM360 630L189 229L166 241H554L537 229L362 630H360ZM199 787L160 790Q166 851 196 884T273 917Q296 917 319 907T375 873Q407
853 423 845T454 836Q484 836 501 857T525 920L564 917Q558 856 529 823T452 790Q430 790 406 800T346 836Q318 855 301 863T270 871Q240 871 223 850T199 787Z" />
<glyph unicode="&#xc4;" glyph-name="Adieresis" horiz-adv-x="728" d="M26 0L333 705H389L701 0H636L548 203L577 188H143L177 203L91 0H26ZM360 630L189 229L166 241H554L537 229L362 630H360ZM409 813V886H482V813H409ZM242 813V886H315V813H242Z" />
<glyph unicode="&#xc5;" glyph-name="Aring" horiz-adv-x="728" d="M26 0L333 705H389L701 0H636L548 203L577 188H143L177 203L91 0H26ZM360 630L189 229L166 241H554L537 229L362 630H360ZM362 759Q330 759 304 774T262 815T247 872Q247 904 262 929T303 969T362
985Q395 985 421 970T462 929T477 872Q477 841 462 816T421 775T362 759ZM362 797Q396 797 416 818T437 872Q437 904 417 925T362 947Q329 947 308 926T287 872Q287 840 308 819T362 797Z" />
<glyph unicode="&#xc6;" glyph-name="AE" horiz-adv-x="1001" d="M6 0L433 705H947V652H538L559 675L587 368L570 384H926V331H578L589 341L618 32L609 53H947V0H561L543 197L568 188H177L200 205L77 0H6ZM466 651L213 226L204 241H549L541 226L501 651H466Z" />
<glyph unicode="&#xc7;" glyph-name="Ccedilla" horiz-adv-x="684" d="M390 -8Q286 -8 214 35T103 160T65 353Q65 465 103 545T213 669T390 713Q466 713 525 690T628 620L602 570Q553 615 504 635T390 656Q263 656 197 577T131 353Q131 209 197 129T390 49Q455
49 504 69T602 135L628 85Q584 39 525 16T390 -8ZM391 -191Q366 -191 345 -186T307 -172L318 -133Q337 -142 353 -146T392 -150Q419 -150 435 -140T452 -110Q452 -80 414 -80Q403 -80 392 -81T365 -89L349 -75L363 20H408L395 -55L374 -51Q386 -48 397 -46T419
-44Q453 -44 476 -61T500 -111Q500 -146 470 -168T391 -191Z" />
<glyph unicode="&#xc8;" glyph-name="Egrave" horiz-adv-x="585" d="M93 0V705H531V652H153V384H509V331H153V53H531V0H93ZM300 765L159 936H232L350 765H300Z" />
<glyph unicode="&#xc9;" glyph-name="Eacute" horiz-adv-x="585" d="M93 0V705H531V652H153V384H509V331H153V53H531V0H93ZM300 765L418 936H491L350 765H300Z" />
<glyph unicode="&#xca;" glyph-name="Ecircumflex" horiz-adv-x="585" d="M93 0V705H531V652H153V384H509V331H153V53H531V0H93ZM172 765L294 936H356L478 765H429L325 891L221 765H172Z" />
<glyph unicode="&#xcb;" glyph-name="Edieresis" horiz-adv-x="585" d="M93 0V705H531V652H153V384H509V331H153V53H531V0H93ZM372 813V886H445V813H372ZM205 813V886H278V813H205Z" />
<glyph unicode="&#xcc;" glyph-name="Igrave" horiz-adv-x="247" d="M93 0V705H155V0H93ZM98 765L-43 936H30L148 765H98Z" />
<glyph unicode="&#xcd;" glyph-name="Iacute" horiz-adv-x="247" d="M93 0V705H155V0H93ZM98 765L216 936H289L148 765H98Z" />
<glyph unicode="&#xce;" glyph-name="Icircumflex" horiz-adv-x="247" d="M93 0V705H155V0H93ZM-30 765L92 936H154L276 765H227L123 891L19 765H-30Z" />
<glyph unicode="&#xcf;" glyph-name="Idieresis" horiz-adv-x="247" d="M93 0V705H155V0H93ZM170 813V886H243V813H170ZM3 813V886H76V813H3Z" />
<glyph unicode="&#xd0;" glyph-name="Eth" horiz-adv-x="740" d="M93 0V705H316Q432 705 512 665T633 546T675 353Q675 239 634 160T512 41T316 0H93ZM155 55H311Q462 55 536 129T610 353Q610 503 536 577T311 651H155V55ZM6 333V383H356V333H6Z" />
<glyph unicode="&#xd1;" glyph-name="Ntilde" horiz-adv-x="743" d="M93 0V705H143L615 73H593V705H650V0H601L129 632H150V0H93ZM209 787L170 790Q176 851 206 884T283 917Q306 917 329 907T385 873Q417 853 433 845T464 836Q494 836 511 857T535 920L574 917Q568
856 539 823T462 790Q440 790 416 800T356 836Q328 855 311 863T280 871Q250 871 233 850T209 787Z" />
<glyph unicode="&#xd2;" glyph-name="Ograve" horiz-adv-x="765" d="M65 353Q65 465 102 545T211 669T382 713Q480 713 551 670T661 546T700 354Q700 242 661 161T551 36T382 -8Q283 -8 212 36T103 161T65 353ZM131 353Q131 209 195 129T382 48Q501 48 568 128T635
353Q635 498 569 577T382 657Q259 657 195 578T131 353ZM357 765L216 936H289L407 765H357Z" />
<glyph unicode="&#xd3;" glyph-name="Oacute" horiz-adv-x="765" d="M65 353Q65 465 102 545T211 669T382 713Q480 713 551 670T661 546T700 354Q700 242 661 161T551 36T382 -8Q283 -8 212 36T103 161T65 353ZM131 353Q131 209 195 129T382 48Q501 48 568 128T635
353Q635 498 569 577T382 657Q259 657 195 578T131 353ZM357 765L475 936H548L407 765H357Z" />
<glyph unicode="&#xd4;" glyph-name="Ocircumflex" horiz-adv-x="765" d="M65 353Q65 465 102 545T211 669T382 713Q480 713 551 670T661 546T700 354Q700 242 661 161T551 36T382 -8Q283 -8 212 36T103 161T65 353ZM131 353Q131 209 195 129T382 48Q501 48 568
128T635 353Q635 498 569 577T382 657Q259 657 195 578T131 353ZM229 765L351 936H413L535 765H486L382 891L278 765H229Z" />
<glyph unicode="&#xd5;" glyph-name="Otilde" horiz-adv-x="765" d="M65 353Q65 465 102 545T211 669T382 713Q480 713 551 670T661 546T700 354Q700 242 661 161T551 36T382 -8Q283 -8 212 36T103 161T65 353ZM131 353Q131 209 195 129T382 48Q501 48 568 128T635
353Q635 498 569 577T382 657Q259 657 195 578T131 353ZM219 787L180 790Q186 851 216 884T293 917Q316 917 339 907T395 873Q427 853 443 845T474 836Q504 836 521 857T545 920L584 917Q578 856 549 823T472 790Q450 790 426 800T366 836Q338 855 321 863T290
871Q260 871 243 850T219 787Z" />
<glyph unicode="&#xd6;" glyph-name="Odieresis" horiz-adv-x="765" d="M65 353Q65 465 102 545T211 669T382 713Q480 713 551 670T661 546T700 354Q700 242 661 161T551 36T382 -8Q283 -8 212 36T103 161T65 353ZM131 353Q131 209 195 129T382 48Q501 48 568
128T635 353Q635 498 569 577T382 657Q259 657 195 578T131 353ZM429 813V886H502V813H429ZM262 813V886H335V813H262Z" />
<glyph unicode="&#xd7;" glyph-name="multiply" horiz-adv-x="600" d="M101 49L65 84L264 284L65 484L101 519L300 320L499 519L535 484L336 284L535 84L499 49L300 248L101 49Z" />
<glyph unicode="&#xd8;" glyph-name="Oslash" horiz-adv-x="765" d="M65 353Q65 465 102 545T211 669T382 713Q480 713 551 670T661 546T700 354Q700 242 661 161T551 36T382 -8Q283 -8 212 36T103 161T65 353ZM131 353Q131 209 195 129T382 48Q501 48 568 128T635
353Q635 498 569 577T382 657Q259 657 195 578T131 353ZM234 44L184 -41L139 -16L189 70L209 100L519 632L534 661L584 746L628 721L578 635L559 606L249 73L234 44Z" />
<glyph unicode="&#xd9;" glyph-name="Ugrave" horiz-adv-x="726" d="M364 -8Q223 -8 156 64T88 274V705H150V279Q150 164 201 106T364 48Q468 48 522 106T577 279V705H639V274Q639 136 569 64T364 -8ZM339 765L198 936H271L389 765H339Z" />
<glyph unicode="&#xda;" glyph-name="Uacute" horiz-adv-x="726" d="M364 -8Q223 -8 156 64T88 274V705H150V279Q150 164 201 106T364 48Q468 48 522 106T577 279V705H639V274Q639 136 569 64T364 -8ZM339 765L457 936H530L389 765H339Z" />
<glyph unicode="&#xdb;" glyph-name="Ucircumflex" horiz-adv-x="726" d="M364 -8Q223 -8 156 64T88 274V705H150V279Q150 164 201 106T364 48Q468 48 522 106T577 279V705H639V274Q639 136 569 64T364 -8ZM211 765L333 936H395L517 765H468L364 891L260 765H211Z" />
<glyph unicode="&#xdc;" glyph-name="Udieresis" horiz-adv-x="726" d="M364 -8Q223 -8 156 64T88 274V705H150V279Q150 164 201 106T364 48Q468 48 522 106T577 279V705H639V274Q639 136 569 64T364 -8ZM411 813V886H484V813H411ZM244 813V886H317V813H244Z" />
<glyph unicode="&#xdd;" glyph-name="Yacute" horiz-adv-x="597" d="M267 0V328L282 281L-5 705H67L309 340H291L533 705H602L315 281L329 328V0H267ZM274 765L392 936H465L324 765H274Z" />
<glyph unicode="&#xde;" glyph-name="Thorn" horiz-adv-x="645" d="M93 0V705H155V564H366Q475 564 535 512T595 367Q595 274 535 222T366 169H155V0H93ZM155 222H363Q446 222 489 260T532 367Q532 436 489 473T363 511H155V222Z" />
<glyph unicode="&#xdf;" glyph-name="germandbls" horiz-adv-x="616" d="M83 0V502Q83 618 139 679T308 741Q367 741 409 722T473 666T496 578Q496 510 458 457T320 364V376Q415 351 472 319T556 246T582 155Q582 105 559 68T493 12T392 -8Q355 -8 323 -1T263
20T213 55L236 100Q274 70 311 56T394 42Q454 42 487 71T521 154Q521 191 499 223T422 284T266 340V391Q333 417 370 445T423 507T439 579Q439 629 406 659T309 690Q223 690 184 644T144 507V0H83Z" />
<glyph unicode="&#xe0;" glyph-name="agrave" horiz-adv-x="591" d="M273 -8Q205 -8 155 23T78 112T51 251Q51 332 78 389T156 478T273 510Q342 510 392 474T459 376H447L457 501H516Q513 472 511 444T508 389V0H447V125H458Q442 63 392 28T273 -8ZM281 44Q358
44 403 97T448 251Q448 352 403 405T281 458Q204 458 159 405T113 251Q113 150 158 97T281 44ZM267 550L140 751H210L313 550H267Z" />
<glyph unicode="&#xe1;" glyph-name="aacute" horiz-adv-x="591" d="M273 -8Q205 -8 155 23T78 112T51 251Q51 332 78 389T156 478T273 510Q342 510 392 474T459 376H447L457 501H516Q513 472 511 444T508 389V0H447V125H458Q442 63 392 28T273 -8ZM281 44Q358
44 403 97T448 251Q448 352 403 405T281 458Q204 458 159 405T113 251Q113 150 158 97T281 44ZM267 550L370 751H440L313 550H267Z" />
<glyph unicode="&#xe2;" glyph-name="acircumflex" horiz-adv-x="591" d="M273 -8Q205 -8 155 23T78 112T51 251Q51 332 78 389T156 478T273 510Q342 510 392 474T459 376H447L457 501H516Q513 472 511 444T508 389V0H447V125H458Q442 63 392 28T273 -8ZM281 44Q358
44 403 97T448 251Q448 352 403 405T281 458Q204 458 159 405T113 251Q113 150 158 97T281 44ZM150 550L259 751H321L430 550H385L290 705L195 550H150Z" />
<glyph unicode="&#xe3;" glyph-name="atilde" horiz-adv-x="591" d="M273 -8Q205 -8 155 23T78 112T51 251Q51 332 78 389T156 478T273 510Q342 510 392 474T459 376H447L457 501H516Q513 472 511 444T508 389V0H447V125H458Q442 63 392 28T273 -8ZM281 44Q358
44 403 97T448 251Q448 352 403 405T281 458Q204 458 159 405T113 251Q113 150 158 97T281 44ZM155 592L116 595Q122 656 148 689T218 722Q239 722 257 711T300 678Q322 657 335 649T362 641Q413 641 425 725L464 722Q458 661 432 628T363 595Q343 595 325 606T280
640Q258 660 245 668T218 676Q192 676 177 654T155 592Z" />
<glyph unicode="&#xe4;" glyph-name="adieresis" horiz-adv-x="591" d="M273 -8Q205 -8 155 23T78 112T51 251Q51 332 78 389T156 478T273 510Q342 510 392 474T459 376H447L457 501H516Q513 472 511 444T508 389V0H447V125H458Q442 63 392 28T273 -8ZM281 44Q358
44 403 97T448 251Q448 352 403 405T281 458Q204 458 159 405T113 251Q113 150 158 97T281 44ZM337 615V687H410V615H337ZM170 615V687H243V615H170Z" />
<glyph unicode="&#xe5;" glyph-name="aring" horiz-adv-x="591" d="M273 -8Q205 -8 155 23T78 112T51 251Q51 332 78 389T156 478T273 510Q342 510 392 474T459 376H447L457 501H516Q513 472 511 444T508 389V0H447V125H458Q442 63 392 28T273 -8ZM281 44Q358
44 403 97T448 251Q448 352 403 405T281 458Q204 458 159 405T113 251Q113 150 158 97T281 44ZM290 547Q258 547 232 562T190 603T175 660Q175 691 190 716T231 757T290 772Q323 772 349 757T390 717T405 659Q405 629 390 603T349 562T290 547ZM290 584Q324 584
344 606T365 660Q365 692 345 713T290 735Q257 735 236 714T215 660Q215 628 236 606T290 584Z" />
<glyph unicode="&#xe6;" glyph-name="ae" horiz-adv-x="886" d="M244 -8Q192 -8 152 12T89 66T66 143Q66 202 93 235T184 281T360 295H412V252H362Q270 252 219 243T147 211T127 147Q127 99 160 70T250 41Q295 41 329 62T383 120T403 208V327Q403 397 373 427T281
458Q234 458 194 446T110 404L87 451Q125 479 176 494T281 510Q359 510 401 476T455 376H433Q461 441 512 475T634 510Q729 510 783 448T838 277V251H452V295H801L784 282Q784 365 745 413T631 461Q554 461 509 411T464 267V260Q464 159 510 102T644 44Q688 44
728 59T806 106L830 61Q798 28 748 10T644 -8Q555 -8 498 34T419 156H439Q425 79 373 36T244 -8Z" />
<glyph unicode="&#xe7;" glyph-name="ccedilla" horiz-adv-x="491" d="M285 -8Q214 -8 161 23T80 114T51 254Q51 335 80 392T161 480T285 510Q333 510 377 492T451 442L426 397Q395 428 359 442T287 457Q205 457 159 405T113 253Q113 153 159 99T287 44Q321 44
357 58T426 104L451 59Q421 27 376 10T285 -8ZM288 -191Q263 -191 242 -186T204 -172L215 -133Q234 -142 250 -146T289 -150Q316 -150 332 -140T349 -110Q349 -80 311 -80Q300 -80 289 -81T262 -89L246 -75L260 20H305L292 -55L271 -51Q283 -48 294 -46T316 -44Q350
-44 373 -61T397 -111Q397 -146 367 -168T288 -191Z" />
<glyph unicode="&#xe8;" glyph-name="egrave" horiz-adv-x="543" d="M298 -8Q184 -8 118 60T51 249Q51 329 80 387T163 477T286 510Q353 510 399 482T470 401T495 276V248H95V292H457L440 279Q440 364 401 412T285 461Q203 461 157 405T111 255V248Q111 148 160
96T299 44Q345 44 385 58T462 106L487 61Q455 28 404 10T298 -8ZM263 550L136 751H206L309 550H263Z" />
<glyph unicode="&#xe9;" glyph-name="eacute" horiz-adv-x="543" d="M298 -8Q184 -8 118 60T51 249Q51 329 80 387T163 477T286 510Q353 510 399 482T470 401T495 276V248H95V292H457L440 279Q440 364 401 412T285 461Q203 461 157 405T111 255V248Q111 148 160
96T299 44Q345 44 385 58T462 106L487 61Q455 28 404 10T298 -8ZM263 550L366 751H436L309 550H263Z" />
<glyph unicode="&#xea;" glyph-name="ecircumflex" horiz-adv-x="543" d="M298 -8Q184 -8 118 60T51 249Q51 329 80 387T163 477T286 510Q353 510 399 482T470 401T495 276V248H95V292H457L440 279Q440 364 401 412T285 461Q203 461 157 405T111 255V248Q111 148
160 96T299 44Q345 44 385 58T462 106L487 61Q455 28 404 10T298 -8ZM146 550L255 751H317L426 550H381L286 705L191 550H146Z" />
<glyph unicode="&#xeb;" glyph-name="edieresis" horiz-adv-x="543" d="M298 -8Q184 -8 118 60T51 249Q51 329 80 387T163 477T286 510Q353 510 399 482T470 401T495 276V248H95V292H457L440 279Q440 364 401 412T285 461Q203 461 157 405T111 255V248Q111 148
160 96T299 44Q345 44 385 58T462 106L487 61Q455 28 404 10T298 -8ZM333 615V687H406V615H333ZM166 615V687H239V615H166Z" />
<glyph unicode="&#xec;" glyph-name="igrave" horiz-adv-x="228" d="M83 0V501H144V0H83ZM91 550L-36 751H34L137 550H91Z" />
<glyph unicode="&#xed;" glyph-name="iacute" horiz-adv-x="228" d="M83 0V501H144V0H83ZM91 550L194 751H264L137 550H91Z" />
<glyph unicode="&#xee;" glyph-name="icircumflex" horiz-adv-x="228" d="M83 0V501H144V0H83ZM-26 550L83 751H145L254 550H209L114 705L19 550H-26Z" />
<glyph unicode="&#xef;" glyph-name="idieresis" horiz-adv-x="228" d="M83 0V501H144V0H83ZM161 615V687H234V615H161ZM-6 615V687H67V615H-6Z" />
<glyph unicode="&#xf0;" glyph-name="eth" horiz-adv-x="566" d="M281 -8Q212 -8 160 21T80 103T51 226Q51 297 79 350T160 432T281 461Q359 461 408 421T477 299H456Q456 392 421 475T313 617L331 614L136 533L120 572L294 644L293 631Q263 653 227 670T149 698L163
742Q218 728 263 706T347 656L330 659L445 707L461 668L364 627L366 640Q417 597 449 541T498 418T515 278Q515 185 488 121T409 25T281 -8ZM281 44Q359 44 404 92T450 226Q450 311 405 359T282 408Q204 408 159 360T113 226Q113 140 157 92T281 44Z" />
<glyph unicode="&#xf1;" glyph-name="ntilde" horiz-adv-x="578" d="M83 0V389Q83 416 81 444T75 501H135L144 386H132Q154 446 203 478T317 510Q406 510 451 463T497 316V0H436V311Q436 388 405 422T309 457Q233 457 189 411T144 287V0H83ZM153 592L114 595Q120
656 146 689T216 722Q237 722 255 711T298 678Q320 657 333 649T360 641Q411 641 423 725L462 722Q456 661 430 628T361 595Q341 595 323 606T278 640Q256 660 243 668T216 676Q190 676 175 654T153 592Z" />
<glyph unicode="&#xf2;" glyph-name="ograve" horiz-adv-x="562" d="M281 -8Q210 -8 159 23T79 112T51 251Q51 331 79 389T158 478T281 510Q351 510 402 479T482 389T511 251Q511 170 483 112T403 23T281 -8ZM281 44Q357 44 403 97T449 251Q449 352 403 405T281
458Q204 458 159 405T113 251Q113 150 158 97T281 44ZM259 550L132 751H202L305 550H259Z" />
<glyph unicode="&#xf3;" glyph-name="oacute" horiz-adv-x="562" d="M281 -8Q210 -8 159 23T79 112T51 251Q51 331 79 389T158 478T281 510Q351 510 402 479T482 389T511 251Q511 170 483 112T403 23T281 -8ZM281 44Q357 44 403 97T449 251Q449 352 403 405T281
458Q204 458 159 405T113 251Q113 150 158 97T281 44ZM259 550L362 751H432L305 550H259Z" />
<glyph unicode="&#xf4;" glyph-name="ocircumflex" horiz-adv-x="562" d="M281 -8Q210 -8 159 23T79 112T51 251Q51 331 79 389T158 478T281 510Q351 510 402 479T482 389T511 251Q511 170 483 112T403 23T281 -8ZM281 44Q357 44 403 97T449 251Q449 352 403 405T281
458Q204 458 159 405T113 251Q113 150 158 97T281 44ZM142 550L251 751H313L422 550H377L282 705L187 550H142Z" />
<glyph unicode="&#xf5;" glyph-name="otilde" horiz-adv-x="562" d="M281 -8Q210 -8 159 23T79 112T51 251Q51 331 79 389T158 478T281 510Q351 510 402 479T482 389T511 251Q511 170 483 112T403 23T281 -8ZM281 44Q357 44 403 97T449 251Q449 352 403 405T281
458Q204 458 159 405T113 251Q113 150 158 97T281 44ZM147 592L108 595Q114 656 140 689T210 722Q231 722 249 711T292 678Q314 657 327 649T354 641Q405 641 417 725L456 722Q450 661 424 628T355 595Q335 595 317 606T272 640Q250 660 237 668T210 676Q184 676
169 654T147 592Z" />
<glyph unicode="&#xf6;" glyph-name="odieresis" horiz-adv-x="562" d="M281 -8Q210 -8 159 23T79 112T51 251Q51 331 79 389T158 478T281 510Q351 510 402 479T482 389T511 251Q511 170 483 112T403 23T281 -8ZM281 44Q357 44 403 97T449 251Q449 352 403 405T281
458Q204 458 159 405T113 251Q113 150 158 97T281 44ZM329 615V687H402V615H329ZM162 615V687H235V615H162Z" />
<glyph unicode="&#xf7;" glyph-name="divide" horiz-adv-x="600" d="M52 262V312H548V262H52ZM256 48V126H334V48H256ZM256 447V525H334V447H256Z" />
<glyph unicode="&#xf8;" glyph-name="oslash" horiz-adv-x="562" d="M281 -8Q210 -8 159 23T79 112T51 251Q51 331 79 389T158 478T281 510Q351 510 402 479T482 389T511 251Q511 170 483 112T403 23T281 -8ZM281 44Q359 44 405 97T451 251Q451 351 405 404T281
458Q202 458 157 405T111 251Q111 151 156 98T281 44ZM141 -35L104 -12L422 536L459 514L141 -35Z" />
<glyph unicode="&#xf9;" glyph-name="ugrave" horiz-adv-x="569" d="M259 -8Q171 -8 126 39T80 186V501H141V190Q141 114 172 79T267 44Q338 44 381 90T425 214V501H486V0H426V118H439Q418 57 371 25T259 -8ZM262 551L135 752H205L308 551H262Z" />
<glyph unicode="&#xfa;" glyph-name="uacute" horiz-adv-x="569" d="M259 -8Q171 -8 126 39T80 186V501H141V190Q141 114 172 79T267 44Q338 44 381 90T425 214V501H486V0H426V118H439Q418 57 371 25T259 -8ZM262 551L365 752H435L308 551H262Z" />
<glyph unicode="&#xfb;" glyph-name="ucircumflex" horiz-adv-x="569" d="M259 -8Q171 -8 126 39T80 186V501H141V190Q141 114 172 79T267 44Q338 44 381 90T425 214V501H486V0H426V118H439Q418 57 371 25T259 -8ZM145 551L254 752H316L425 551H380L285 706L190 551H145Z" />
<glyph unicode="&#xfc;" glyph-name="udieresis" horiz-adv-x="569" d="M259 -8Q171 -8 126 39T80 186V501H141V190Q141 114 172 79T267 44Q338 44 381 90T425 214V501H486V0H426V118H439Q418 57 371 25T259 -8ZM332 616V688H405V616H332ZM165 616V688H238V616H165Z" />
<glyph unicode="&#xfd;" glyph-name="yacute" horiz-adv-x="525" d="M60 -227L45 -174Q92 -163 123 -148T175 -107T212 -45L238 15L237 -12L18 501H86L277 38H252L441 501H507L275 -48Q256 -94 234 -124T185 -175T128 -208T60 -227ZM239 550L342 751H412L285 550H239Z" />
<glyph unicode="&#xfe;" glyph-name="thorn" horiz-adv-x="591" d="M83 -216V736H144V376H133Q150 438 199 474T319 510Q387 510 436 479T513 390T541 251Q541 170 514 112T437 23T319 -8Q249 -8 200 27T133 125H144V-216H83ZM311 44Q388 44 433 97T479 251Q479
352 434 405T311 458Q235 458 189 405T143 251Q143 150 189 97T311 44Z" />
<glyph unicode="&#xff;" glyph-name="ydieresis" horiz-adv-x="525" d="M60 -227L45 -174Q92 -163 123 -148T175 -107T212 -45L238 15L237 -12L18 501H86L277 38H252L441 501H507L275 -48Q256 -94 234 -124T185 -175T128 -208T60 -227ZM309 615V687H382V615H309ZM142
615V687H215V615H142Z" />
<glyph unicode="&#x2013;" glyph-name="endash" horiz-adv-x="505" d="M0 253V295H505V253H0Z" />
<glyph unicode="&#x2014;" glyph-name="emdash" horiz-adv-x="1010" d="M0 253V295H1010V253H0Z" />
<glyph unicode="&#x2018;" glyph-name="quoteleft" horiz-adv-x="219" d="M67 519V581Q67 618 78 649T119 711L152 686Q128 659 120 638T112 593L91 605H152V519H67Z" />
<glyph unicode="&#x2019;" glyph-name="quoteright" horiz-adv-x="219" d="M101 513L70 538Q94 564 101 586T108 630L130 619H68V705H153V642Q153 606 142 575T101 513Z" />
<glyph unicode="&#x201a;" glyph-name="quotesinglbase" horiz-adv-x="219" d="M101 -106L70 -81Q90 -59 99 -38T108 11L130 0H68V86H153V22Q153 -18 141 -48T101 -106Z" />
<glyph unicode="&#x201c;" glyph-name="quotedblleft" horiz-adv-x="373" d="M67 519V581Q67 618 78 649T119 711L152 686Q128 659 120 638T112 593L91 605H152V519H67ZM221 519V581Q221 618 232 649T273 711L306 686Q282 659 274 638T266 593L245 605H306V519H221Z" />
<glyph unicode="&#x201d;" glyph-name="quotedblright" horiz-adv-x="373" d="M101 513L70 538Q94 564 101 586T108 630L130 619H68V705H153V642Q153 606 142 575T101 513ZM255 513L224 538Q248 564 255 586T262 630L284 619H222V705H307V642Q307 606 296 575T255 513Z" />
<glyph unicode="&#x201e;" glyph-name="quotedblbase" horiz-adv-x="373" d="M101 -106L70 -81Q90 -59 99 -38T108 11L130 0H68V86H153V22Q153 -18 141 -48T101 -106ZM255 -106L224 -81Q244 -59 253 -38T262 11L284 0H222V86H307V22Q307 -18 295 -48T255 -106Z" />
<glyph unicode="&#x2022;" glyph-name="bullet" horiz-adv-x="529" d="M265 89Q216 89 174 112T107 177T82 268Q82 314 105 355T170 421T265 447Q314 447 355 424T421 360T447 268Q447 219 423 178T357 113T265 89Z" />
<glyph unicode="&#x2039;" glyph-name="guilsinglleft" horiz-adv-x="250" d="M154 88L28 268L154 448H210L94 268L210 88H154Z" />
<glyph unicode="&#x203a;" glyph-name="guilsinglright" horiz-adv-x="250" d="M96 88H40L156 268L40 448H96L222 268L96 88Z" />
</font>
</defs>
</svg>
