<?xml version="1.0" standalone="no"?>
<!DOCTYPE svg PUBLIC "-//W3C//DTD SVG 1.1//EN" "http://www.w3.org/Graphics/SVG/1.1/DTD/svg11.dtd" >
<svg xmlns="http://www.w3.org/2000/svg">
<metadata>Generated by IcoMoon</metadata>
<defs>
<font id="RhinoAfricaLatest" horiz-adv-x="1024">
<font-face units-per-em="1024" ascent="960" descent="-64" />
<missing-glyph horiz-adv-x="1024" />
<glyph unicode="&#x20;" horiz-adv-x="512" d="" />
<glyph unicode="&#xe900;" glyph-name="planning-icon" horiz-adv-x="1108" d="M951.932 661.797h-933.603c-4.861 0-9.524 1.927-12.961 5.356s-5.369 8.080-5.369 12.93v161.675c0.032 26.244 21.35 47.511 47.657 47.543h874.947c26.304-0.040 47.617-21.302 47.657-47.543v-161.675c0-10.099-8.207-18.286-18.33-18.286v0zM36.66 698.368h896.943v143.36c-0.016 6.053-4.931 10.955-10.998 10.971h-874.947c-6.071-0.008-10.998-4.915-10.998-10.971v-143.36zM499.802 53.029h-452.145c-26.307 0.032-47.625 21.299-47.657 47.543v579.511c0 10.099 8.207 18.286 18.33 18.286h933.603c10.123 0 18.33-8.187 18.33-18.286v-108.954h-36.66v90.697h-896.943v-561.254c0-6.059 4.924-10.971 10.998-10.971h452.145v-36.571zM221.175 784.457c-4.861 0-9.524 1.927-12.961 5.356s-5.369 8.080-5.369 12.93v138.971c0 10.099 8.207 18.286 18.33 18.286s18.33-8.187 18.33-18.286v-138.971c0-4.85-1.931-9.501-5.369-12.93s-8.1-5.356-12.961-5.356v0zM482.69 784.457c-4.861 0-9.524 1.927-12.961 5.356s-5.369 8.080-5.369 12.93v138.971c0 10.099 8.207 18.286 18.33 18.286s18.33-8.187 18.33-18.286v-138.971c0-4.85-1.931-9.501-5.369-12.93s-8.1-5.356-12.961-5.356zM749.073 784.457c-4.861 0-9.524 1.927-12.961 5.356s-5.369 8.080-5.369 12.93v138.971c0 10.099 8.207 18.286 18.33 18.286s18.33-8.187 18.33-18.286v-138.971c0-4.85-1.931-9.501-5.369-12.93s-8.1-5.356-12.961-5.356zM811.394-50.030c-116.646 0-221.805 70.097-266.442 177.605s-19.961 231.254 62.522 313.535c82.483 82.281 206.529 106.891 314.294 62.356s178.026-149.446 178.020-265.811c-0.178-158.816-129.194-287.516-288.394-287.685v0zM811.394 488.784c-139.029 0-251.734-112.434-251.734-251.129s112.705-251.129 251.734-251.129c139.029 0 251.734 112.434 251.734 251.129-0.154 138.631-112.769 250.976-251.734 251.129zM793.064 507.070h36.66v-77.356h-36.66v77.356zM541.345 255.942h75.768v-36.571h-75.768v36.571zM1010.588 255.942h70.87v-36.571h-70.87v36.571zM793.064 42.057h36.66v-73.801h-36.66v73.801zM909.832 102.093l-111.211 107.827c-6 5.817-7.285 14.951-3.123 22.192l89.2 155.487 31.821-18.169-82.117-143.17 101.005-98.011-25.574-26.156zM101.43 608.914h119.76v-36.571h-119.76v36.571zM101.43 525.356h212.626v-36.571h-212.626v36.571z" />
<glyph unicode="&#xe901;" glyph-name="calendar-time-one" horiz-adv-x="1005" d="M973.766 890.445h-220.257v46.37c0 12.752-10.433 23.185-23.185 23.185s-23.185-10.433-23.185-23.185v-46.37h-417.328v46.37c0 12.752-10.433 23.185-23.185 23.185s-23.185-10.433-23.185-23.185v-46.37h-220.257c-12.752 0-23.185-10.433-23.185-23.185v-811.472c0-63.758 52.166-115.925 115.925-115.925h765.102c63.758 0 115.925 52.166 115.925 115.925v811.472c0 12.752-10.433 23.185-23.185 23.185zM243.441 844.075v-46.37c0-12.752 10.433-23.185 23.185-23.185s23.185 10.433 23.185 23.185v46.37h417.328v-46.37c0-12.752 10.433-23.185 23.185-23.185s23.185 10.433 23.185 23.185v46.37h197.072v-139.109h-904.211v139.109h197.072zM881.026-13.766h-765.102c-38.255 0-69.555 31.3-69.555 69.555v602.808h904.211v-602.808c0-38.255-31.3-69.555-69.555-69.555zM492.679 90.566c133.382 0 241.509 108.127 241.509 241.509s-108.127 241.509-241.509 241.509c-133.382 0-241.509-108.127-241.509-241.509s108.127-241.509 241.509-241.509zM492.679 129.208c-112.041 0-202.868 90.827-202.868 202.868s90.827 202.868 202.868 202.868c112.041 0 202.868-90.827 202.868-202.868s-90.827-202.868-202.868-202.868zM512 441.819c0 10.671-8.65 19.321-19.321 19.321s-19.321-8.65-19.321-19.321v-117.739l73.185-73.28c7.54-7.55 19.774-7.558 27.324-0.018s7.558 19.774 0.018 27.324l-61.885 61.965v101.748z" />
<glyph unicode="&#xe902;" glyph-name="calendar-time-three" horiz-adv-x="1005" d="M973.766 890.445h-220.257v46.37c0 12.752-10.433 23.185-23.185 23.185s-23.185-10.433-23.185-23.185v-46.37h-417.328v46.37c0 12.752-10.433 23.185-23.185 23.185s-23.185-10.433-23.185-23.185v-46.37h-220.257c-12.752 0-23.185-10.433-23.185-23.185v-811.472c0-63.758 52.166-115.925 115.925-115.925h765.102c63.758 0 115.925 52.166 115.925 115.925v811.472c0 12.752-10.433 23.185-23.185 23.185zM243.441 844.075v-46.37c0-12.752 10.433-23.185 23.185-23.185s23.185 10.433 23.185 23.185v46.37h417.328v-46.37c0-12.752 10.433-23.185 23.185-23.185s23.185 10.433 23.185 23.185v46.37h197.072v-139.109h-904.211v139.109h197.072zM881.026-13.766h-765.102c-38.255 0-69.555 31.3-69.555 69.555v602.808h904.211v-602.808c0-38.255-31.3-69.555-69.555-69.555zM492.679 90.566c133.382 0 241.509 108.127 241.509 241.509s-108.127 241.509-241.509 241.509c-133.382 0-241.509-108.127-241.509-241.509s108.127-241.509 241.509-241.509zM492.679 129.208c-112.041 0-202.868 90.827-202.868 202.868s90.827 202.868 202.868 202.868c112.041 0 202.868-90.827 202.868-202.868s-90.827-202.868-202.868-202.868zM422.754 399.572c-7.804 7.277-20.030 6.85-27.307-0.954s-6.85-20.030 0.954-27.307l86.109-80.298 103.506 3.547c10.664 0.365 19.013 9.307 18.648 19.971s-9.307 19.013-19.971 18.648l-87.524-3-74.414 69.392z" />
<glyph unicode="&#xe903;" glyph-name="calendar-time-two" horiz-adv-x="1005" d="M973.766 890.445h-220.257v46.37c0 12.752-10.433 23.185-23.185 23.185s-23.185-10.433-23.185-23.185v-46.37h-417.328v46.37c0 12.752-10.433 23.185-23.185 23.185s-23.185-10.433-23.185-23.185v-46.37h-220.257c-12.752 0-23.185-10.433-23.185-23.185v-811.472c0-63.758 52.166-115.925 115.925-115.925h765.102c63.758 0 115.925 52.166 115.925 115.925v811.472c0 12.752-10.433 23.185-23.185 23.185zM243.441 844.075v-46.37c0-12.752 10.433-23.185 23.185-23.185s23.185 10.433 23.185 23.185v46.37h417.328v-46.37c0-12.752 10.433-23.185 23.185-23.185s23.185 10.433 23.185 23.185v46.37h197.072v-139.109h-904.211v139.109h197.072zM881.026-13.766h-765.102c-38.255 0-69.555 31.3-69.555 69.555v602.808h904.211v-602.808c0-38.255-31.3-69.555-69.555-69.555zM492.679 90.566c133.382 0 241.509 108.127 241.509 241.509s-108.127 241.509-241.509 241.509c-133.382 0-241.509-108.127-241.509-241.509s108.127-241.509 241.509-241.509zM492.679 129.208c-112.041 0-202.868 90.827-202.868 202.868s90.827 202.868 202.868 202.868c112.041 0 202.868-90.827 202.868-202.868s-90.827-202.868-202.868-202.868zM589.865 383.012c7.676 7.412 7.889 19.644 0.477 27.32s-19.644 7.889-27.32 0.477l-84.695-81.789-1.874-103.55c-0.193-10.669 8.299-19.474 18.968-19.667s19.474 8.299 19.667 18.968l1.585 87.561 73.192 70.68z" />
<glyph unicode="&#xe904;" glyph-name="unsure" horiz-adv-x="1096" d="M45.444 306.185l167.074-101.915c47.105-28.056 107.708-16.86 141.678 26.175l8.465 11.138v-276.228c-0.004-15.121 12.060-27.483 27.177-27.846h311.871c15.379 0 27.846 12.467 27.846 27.846v275.894l8.465-11.138c34.152-42.968 94.88-53.931 141.901-25.618l166.294 101.581c21.54 12.89 37.013 33.876 42.958 58.264s1.866 50.141-11.326 71.497c-27.098 43.372-83.844 57.212-127.867 31.187l-98.239-59.924-40.098 69.614c-32.24 55.659-91.613 90.011-155.935 90.22h-22.276v1.114c51.804 33.778 78.9 94.862 69.169 155.935-9.403 66.614-60.861 119.469-127.199 130.652-46.169 8.796-93.855-3.457-130.065-33.42s-57.17-74.514-57.169-121.513c0.187-53.306 26.81-103.047 71.062-132.768h-22.276c-64.322-0.209-123.695-34.56-155.935-90.22l-40.098-69.614-98.573 60.035c-44.14 26.366-101.27 12.43-128.313-31.298-13.175-21.32-17.268-47.026-11.367-71.383s21.306-45.34 42.777-58.266zM565.377 800.055c42.255-7.688 74.786-41.657 80.641-84.205 6.391-39.548-11.059-79.158-44.553-101.135-15.91-10.354-25.539-28.021-25.618-47.003-0.179-14.886 5.61-29.223 16.073-39.812s24.731-16.548 39.618-16.547h22.276c44.558-0.044 85.722-23.809 108.041-62.374l54.355-94.341c3.74-6.517 9.955-11.246 17.233-13.112s15.002-0.713 21.417 3.199l122.521 74.515c17.852 10.509 40.826 4.877 51.793-12.698 5.371-8.704 7.016-19.203 4.565-29.133s-8.793-18.457-17.597-23.662l-165.403-101.581c-23.039-13.702-52.663-8.225-69.28 12.809l-58.253 74.069c-7.318 9.366-19.775 13.055-31.012 9.183s-18.779-14.45-18.775-26.336v-328.69h-255.289v328.578c0.004 11.886-7.538 22.464-18.775 26.336s-23.694 0.183-31.012-9.183l-58.253-73.958c-16.535-20.994-46.051-26.516-69.057-12.92l-167.074 101.915c-8.736 5.242-15.009 13.765-17.416 23.665s-0.748 20.351 4.607 29.019l0.334-0.223c10.883 17.522 33.711 23.242 51.57 12.92l122.521-74.738c6.415-3.912 14.139-5.066 21.417-3.199s13.493 6.596 17.233 13.112l54.355 94.341c22.319 38.565 63.483 62.33 108.041 62.374h22.276c25.537-1.235 48.634 15.076 56.012 39.555s-2.859 50.837-24.825 63.919c-40.815 26.668-57.026 78.507-38.676 123.677s66.121 71.016 113.971 61.664zM906.096 604.801c15.379 0 27.846-12.467 27.846-27.846 0-14.524-11.12-26.451-25.311-27.732l-2.535-0.114-2.535 0.114c-14.191 1.28-25.311 13.207-25.311 27.732 0 15.379 12.467 27.846 27.846 27.846zM179.549 604.801c15.379 0 27.846-12.467 27.846-27.846s-12.467-27.846-27.846-27.846v0l-2.535 0.114c-14.191 1.28-25.311 13.207-25.311 27.732 0 15.379 12.467 27.846 27.846 27.846zM928.596 955.545c48.128-9.771 84.716-49.065 91.034-97.767s-19.034-96.031-63.077-117.758c-13.040-6.193-21.656-18.886-22.722-33.126l-0.112-3.073v-21.163c0-15.379-12.467-27.846-27.846-27.846-14.524 0-26.451 11.12-27.732 25.311l-0.114 2.535v21.163c-0.136 36.663 20.787 70.147 53.798 86.099 24.253 11.896 37.363 38.713 31.855 65.159-4.622 23.1-22.678 41.156-45.778 45.778-27.967 5.859-56.115-9.153-66.829-35.642-3.76-9.212-12.15-15.718-22.008-17.068s-19.687 2.663-25.785 10.526c-6.098 7.863-7.537 18.381-3.777 27.593 21.040 50.89 75.054 79.877 129.092 69.28zM202.048 955.545c48.113-9.803 84.671-49.112 90.962-97.809s-19.075-96.006-63.117-117.716c-13.017-6.203-21.597-18.903-22.62-33.129l-0.102-3.070v-21.163c0-15.379-12.467-27.846-27.846-27.846-14.524 0-26.451 11.12-27.732 25.311l-0.114 2.535v21.163c-0.136 36.663 20.787 70.147 53.798 86.099 24.253 11.896 37.363 38.713 31.855 65.159-4.622 23.1-22.678 41.156-45.778 45.778-27.967 5.859-56.115-9.153-66.829-35.642-3.76-9.212-12.15-15.718-22.008-17.068s-19.687 2.663-25.785 10.526c-6.098 7.863-7.537 18.381-3.777 27.593 21.040 50.89 75.054 79.877 129.092 69.28z" />
<glyph unicode="&#xe905;" glyph-name="cal-star" horiz-adv-x="1005" d="M973.766 890.445h-220.257v46.37c0 12.752-10.433 23.185-23.185 23.185s-23.185-10.433-23.185-23.185v-46.37h-417.328v46.37c0 12.752-10.433 23.185-23.185 23.185s-23.185-10.433-23.185-23.185v-46.37h-220.257c-12.752 0-23.185-10.433-23.185-23.185v-811.472c0-63.758 52.166-115.925 115.925-115.925h765.102c63.758 0 115.925 52.166 115.925 115.925v811.472c0 12.752-10.433 23.185-23.185 23.185zM243.441 844.075v-46.37c0-12.752 10.433-23.185 23.185-23.185s23.185 10.433 23.185 23.185v46.37h417.328v-46.37c0-12.752 10.433-23.185 23.185-23.185s23.185 10.433 23.185 23.185v46.37h197.072v-139.109h-904.211v139.109h197.072zM881.026-13.766h-765.102c-38.255 0-69.555 31.3-69.555 69.555v602.808h904.211v-602.808c0-38.255-31.3-69.555-69.555-69.555zM483.974 211.757l-98.723-49.826c-9.526-4.808-21.146-0.983-25.954 8.543-1.886 3.736-2.507 7.984-1.771 12.103l18.463 103.342c1.151 6.444-1.039 13.033-5.818 17.505l-77.63 72.644c-7.791 7.291-8.197 19.517-0.906 27.309 3.021 3.229 7.059 5.323 11.438 5.934l108.7 15.163c6.226 0.868 11.64 4.711 14.514 10.302l49.211 95.724c4.879 9.49 16.527 13.228 26.017 8.349 3.586-1.844 6.506-4.763 8.349-8.349l49.211-95.724c2.874-5.59 8.288-9.433 14.514-10.302l108.7-15.163c10.568-1.474 17.94-11.237 16.466-21.805-0.611-4.379-2.706-8.417-5.934-11.438l-77.63-72.644c-4.78-4.473-6.97-11.061-5.818-17.505l18.463-103.342c1.877-10.504-5.117-20.541-15.622-22.418-4.12-0.736-8.367-0.114-12.103 1.771l-98.723 49.826c-5.475 2.763-11.936 2.763-17.411 0z" />
<glyph unicode="&#xe906;" glyph-name="cal-first" horiz-adv-x="1005" d="M973.766 890.445h-220.257v46.37c0 12.752-10.433 23.185-23.185 23.185s-23.185-10.433-23.185-23.185v-46.37h-417.328v46.37c0 12.752-10.433 23.185-23.185 23.185s-23.185-10.433-23.185-23.185v-46.37h-220.257c-12.752 0-23.185-10.433-23.185-23.185v-811.472c0-63.758 52.166-115.925 115.925-115.925h765.102c63.758 0 115.925 52.166 115.925 115.925v811.472c0 12.752-10.433 23.185-23.185 23.185zM243.441 844.075v-46.37c0-12.752 10.433-23.185 23.185-23.185s23.185 10.433 23.185 23.185v46.37h417.328v-46.37c0-12.752 10.433-23.185 23.185-23.185s23.185 10.433 23.185 23.185v46.37h197.072v-139.109h-904.211v139.109h197.072zM881.026-13.766h-765.102c-38.255 0-69.555 31.3-69.555 69.555v602.808h904.211v-602.808c0-38.255-31.3-69.555-69.555-69.555zM301.404 264.453h-162.294c-12.752 0-23.185-10.433-23.185-23.185v-162.294c0-12.752 10.433-23.185 23.185-23.185h162.294c12.752 0 23.185 10.433 23.185 23.185v162.294c0 12.752-10.433 23.185-23.185 23.185zM278.219 102.159h-115.925v115.925h115.925v-115.925zM579.623 264.453h-162.294c-12.752 0-23.185-10.433-23.185-23.185v-162.294c0-12.752 10.433-23.185 23.185-23.185h162.294c12.752 0 23.185 10.433 23.185 23.185v162.294c0 12.752-10.433 23.185-23.185 23.185zM556.438 102.159h-115.925v115.925h115.925v-115.925zM857.841 264.453h-162.294c-12.752 0-23.185-10.433-23.185-23.185v-162.294c0-12.752 10.433-23.185 23.185-23.185h162.294c12.752 0 23.185 10.433 23.185 23.185v162.294c0 12.752-10.433 23.185-23.185 23.185zM834.657 102.159h-115.925v115.925h115.925v-115.925zM579.623 542.672h-162.294c-12.752 0-23.185-10.433-23.185-23.185v-162.294c0-12.752 10.433-23.185 23.185-23.185h162.294c12.752 0 23.185 10.433 23.185 23.185v162.294c0 12.752-10.433 23.185-23.185 23.185zM556.438 380.377h-115.925v115.925h115.925v-115.925zM695.547 542.672h162.294c11.955 0 21.872-9.17 23.065-20.823l0.12-2.362v-162.294c0-11.955-9.17-21.872-20.823-23.065l-2.362-0.12h-162.294c-11.955 0-21.872 9.17-23.065 20.823l-0.12 2.362v162.294c0 11.955 9.17 21.872 20.823 23.065l2.362 0.12h162.294zM301.404 542.672c12.752 0 23.185-10.433 23.185-23.185v0-162.294c0-12.752-10.433-23.185-23.185-23.185v0h-162.294c-12.752 0-23.185 10.433-23.185 23.185v0 162.294c0 12.752 10.433 23.185 23.185 23.185v0zM834.657 496.302h-115.925v-115.925h115.925v115.925z" />
<glyph unicode="&#xe907;" glyph-name="cal-last" horiz-adv-x="1005" d="M973.766 890.445h-220.257v46.37c0 12.752-10.433 23.185-23.185 23.185s-23.185-10.433-23.185-23.185v-46.37h-417.328v46.37c0 12.752-10.433 23.185-23.185 23.185s-23.185-10.433-23.185-23.185v-46.37h-220.257c-12.752 0-23.185-10.433-23.185-23.185v-811.472c0-63.758 52.166-115.925 115.925-115.925h765.102c63.758 0 115.925 52.166 115.925 115.925v811.472c0 12.752-10.433 23.185-23.185 23.185zM243.441 844.075v-46.37c0-12.752 10.433-23.185 23.185-23.185s23.185 10.433 23.185 23.185v46.37h417.328v-46.37c0-12.752 10.433-23.185 23.185-23.185s23.185 10.433 23.185 23.185v46.37h197.072v-139.109h-904.211v139.109h197.072zM881.026-13.766h-765.102c-38.255 0-69.555 31.3-69.555 69.555v602.808h904.211v-602.808c0-38.255-31.3-69.555-69.555-69.555zM857.841 264.453h-162.294c-12.752 0-23.185-10.433-23.185-23.185v-162.294c0-12.752 10.433-23.185 23.185-23.185h162.294c12.752 0 23.185 10.433 23.185 23.185v162.294c0 12.752-10.433 23.185-23.185 23.185zM139.109 264.453h162.294c11.955 0 21.872-9.17 23.065-20.823l0.12-2.362v-162.294c0-11.955-9.17-21.872-20.823-23.065l-2.362-0.12h-162.294c-11.955 0-21.872 9.17-23.065 20.823l-0.12 2.362v162.294c0 11.955 9.17 21.872 20.823 23.065l2.362 0.12h162.294zM579.623 264.453c12.752 0 23.185-10.433 23.185-23.185v0-162.294c0-12.752-10.433-23.185-23.185-23.185v0h-162.294c-12.752 0-23.185 10.433-23.185 23.185v0 162.294c0 12.752 10.433 23.185 23.185 23.185v0zM834.657 218.083v-115.925h-115.925v115.925h115.925zM301.404 542.672c11.955 0 21.872-9.17 23.065-20.823l0.12-2.362v-162.294c0-11.955-9.17-21.872-20.823-23.065l-2.362-0.12h-162.294c-11.955 0-21.872 9.17-23.065 20.823l-0.12 2.362v162.294c0 11.955 9.17 21.872 20.823 23.065l2.362 0.12h162.294zM579.623 542.672c11.955 0 21.872-9.17 23.065-20.823l0.12-2.362v-162.294c0-11.955-9.17-21.872-20.823-23.065l-2.362-0.12h-162.294c-11.955 0-21.872 9.17-23.065 20.823l-0.12 2.362v162.294c0 11.955 9.17 21.872 20.823 23.065l2.362 0.12h162.294zM857.841 542.672c11.955 0 21.872-9.17 23.065-20.823l0.12-2.362v-162.294c0-11.955-9.17-21.872-20.823-23.065l-2.362-0.12h-162.294c-11.955 0-21.872 9.17-23.065 20.823l-0.12 2.362v162.294c0 11.955 9.17 21.872 20.823 23.065l2.362 0.12h162.294z" />
<glyph unicode="&#xe908;" glyph-name="cal-half" horiz-adv-x="1005" d="M973.766 890.445h-220.257v46.37c0 12.752-10.433 23.185-23.185 23.185s-23.185-10.433-23.185-23.185v-46.37h-417.328v46.37c0 12.752-10.433 23.185-23.185 23.185s-23.185-10.433-23.185-23.185v-46.37h-220.257c-12.752 0-23.185-10.433-23.185-23.185v-811.472c0-63.758 52.166-115.925 115.925-115.925h765.102c63.758 0 115.925 52.166 115.925 115.925v811.472c0 12.752-10.433 23.185-23.185 23.185zM243.441 844.075v-46.37c0-12.752 10.433-23.185 23.185-23.185s23.185 10.433 23.185 23.185v46.37h417.328v-46.37c0-12.752 10.433-23.185 23.185-23.185s23.185 10.433 23.185 23.185v46.37h197.072v-139.109h-904.211v139.109h197.072zM881.026-13.766h-765.102c-38.255 0-69.555 31.3-69.555 69.555v602.808h904.211v-602.808c0-38.255-31.3-69.555-69.555-69.555zM301.404 264.453h-162.294c-12.752 0-23.185-10.433-23.185-23.185v-162.294c0-12.752 10.433-23.185 23.185-23.185h162.294c12.752 0 23.185 10.433 23.185 23.185v162.294c0 12.752-10.433 23.185-23.185 23.185zM278.219 102.159h-115.925v115.925h115.925v-115.925zM579.623 264.453h-162.294c-12.752 0-23.185-10.433-23.185-23.185v-162.294c0-12.752 10.433-23.185 23.185-23.185h162.294c12.752 0 23.185 10.433 23.185 23.185v162.294c0 12.752-10.433 23.185-23.185 23.185zM556.438 102.159h-115.925v115.925h115.925v-115.925zM857.841 264.453h-162.294c-12.752 0-23.185-10.433-23.185-23.185v-162.294c0-12.752 10.433-23.185 23.185-23.185h162.294c12.752 0 23.185 10.433 23.185 23.185v162.294c0 12.752-10.433 23.185-23.185 23.185zM834.657 218.083v-115.925h-115.925v115.925h115.925zM301.404 542.672c11.955 0 21.872-9.17 23.065-20.823l0.12-2.362v-162.294c0-11.955-9.17-21.872-20.823-23.065l-2.362-0.12h-162.294c-11.955 0-21.872 9.17-23.065 20.823l-0.12 2.362v162.294c0 11.955 9.17 21.872 20.823 23.065l2.362 0.12h162.294zM417.328 542.672h162.294c11.955 0 21.872-9.17 23.065-20.823l0.12-2.362v-162.294c0-11.955-9.17-21.872-20.823-23.065l-2.362-0.12h-162.294c-11.955 0-21.872 9.17-23.065 20.823l-0.12 2.362v162.294c0 11.955 9.17 21.872 20.823 23.065l2.362 0.12h162.294zM857.841 542.672c12.752 0 23.185-10.433 23.185-23.185v0-162.294c0-12.752-10.433-23.185-23.185-23.185v0h-162.294c-12.752 0-23.185 10.433-23.185 23.185v0 162.294c0 12.752 10.433 23.185 23.185 23.185v0z" />
<glyph unicode="&#xe909;" glyph-name="times" d="M139.728 936.124l367.315-365.776 367.311 365.776c30.369 30.246 78.52 31.744 110.651 4.561l5.201-4.796c31.927-32.057 31.821-83.925-0.235-115.852v0l-366.847-365.319 366.847-365.39c32.057-31.927 32.162-83.795 0.235-115.852s-83.795-32.162-115.852-0.235l-367.311 365.847-367.315-365.847c-30.369-30.246-78.52-31.744-110.651-4.561l-5.201 4.796c-31.927 32.057-31.821 83.925 0.235 115.852v0l366.811 365.39-366.811 365.319c-32.057 31.927-32.162 83.795-0.235 115.852s83.795 32.162 115.852 0.235z" />
<glyph unicode="&#xe90a;" glyph-name="check" horiz-adv-x="1331" d="M118.195 414.35c-25.712 27.575-68.91 29.084-96.485 3.372s-29.084-68.91-3.372-96.485l322.158-345.49c26.466-28.382 71.237-29.023 98.504-1.41l858.522 869.429c26.491 26.828 26.218 70.051-0.609 96.542s-70.051 26.218-96.542-0.609l-808.536-818.808-273.641 293.459z" />
<glyph unicode="&#xe90b;" glyph-name="dollar-one" horiz-adv-x="614" d="M346.697-44.105v119.018c79.345 6.32 139.908 28.789 181.687 67.408s62.669 85.665 62.669 141.136c0 44.939-11.41 80.925-34.231 107.959s-50.732 47.397-83.734 61.089c-33.002 13.692-75.132 26.858-126.391 39.497v0 245.409c62.493-3.511 122.178-23.172 179.054-58.982v0l34.757 84.261c-27.385 18.959-59.86 34.055-97.426 45.29s-76.361 17.554-116.385 18.959v0 119.018h-67.408v-120.071c-77.941-6.32-137.099-28.789-177.474-67.408s-60.562-85.665-60.562-141.136c0-44.237 11.059-80.048 33.178-107.432s49.503-48.099 82.154-62.142c32.651-14.043 73.552-27.034 122.704-38.971v0-244.356c-42.13 2.809-82.505 11.761-121.125 26.858s-70.568 34.231-95.846 57.403v0l-38.971-82.154c27.385-25.278 64.073-46.168 110.065-62.669s94.618-26.156 145.876-28.965v0-119.018h67.408zM279.289 508.855c-43.535 11.235-76.888 25.278-100.059 42.13s-34.757 40.375-34.757 70.568c0 29.491 11.235 54.594 33.704 75.308s56.174 33.88 101.113 39.497v0-227.504zM346.697 165.493v226.45c45.641-12.639 80.574-27.209 104.799-43.71s36.337-40.199 36.337-71.095c0-30.193-11.761-55.296-35.284-75.308s-58.807-32.124-105.852-36.337v0z" />
<glyph unicode="&#xe90c;" glyph-name="dollar-two" horiz-adv-x="1375" d="M1107.383-44.105v119.018c79.345 6.32 139.908 28.789 181.687 67.408s62.669 85.665 62.669 141.136c0 44.939-11.41 80.925-34.231 107.959s-50.732 47.397-83.734 61.089c-33.002 13.692-75.132 26.858-126.391 39.497v0 245.409c62.493-3.511 122.178-23.172 179.054-58.982v0l34.757 84.261c-27.385 18.959-59.86 34.055-97.426 45.29s-76.361 17.554-116.385 18.959v0 119.018h-67.408v-120.071c-77.941-6.32-137.099-28.789-177.474-67.408s-60.562-85.665-60.562-141.136c0-44.237 11.059-80.048 33.178-107.432s49.503-48.099 82.154-62.142c32.651-14.043 73.552-27.034 122.704-38.971v0-244.356c-42.13 2.809-82.505 11.761-121.125 26.858s-70.568 34.231-95.846 57.403v0l-38.971-82.154c27.385-25.278 64.073-46.168 110.065-62.669s94.618-26.156 145.876-28.965v0-119.018h67.408zM1039.974 508.855c-43.535 11.235-76.888 25.278-100.059 42.13s-34.757 40.375-34.757 70.568c0 29.491 11.235 54.594 33.704 75.308s56.174 33.88 101.113 39.497v0-227.504zM1107.383 165.493v226.45c45.641-12.639 80.574-27.209 104.799-43.71s36.337-40.199 36.337-71.095c0-30.193-11.761-55.296-35.284-75.308s-58.807-32.124-105.852-36.337v0zM346.697-44.105v119.018c79.345 6.32 139.908 28.789 181.687 67.408s62.669 85.665 62.669 141.136c0 44.939-11.41 80.925-34.231 107.959s-50.732 47.397-83.734 61.089c-33.002 13.692-75.132 26.858-126.391 39.497v0 245.409c62.493-3.511 122.178-23.172 179.054-58.982v0l34.757 84.261c-27.385 18.959-59.86 34.055-97.426 45.29s-76.361 17.554-116.385 18.959v0 119.018h-67.408v-120.071c-77.941-6.32-137.099-28.789-177.474-67.408s-60.562-85.665-60.562-141.136c0-44.237 11.059-80.048 33.178-107.432s49.503-48.099 82.154-62.142c32.651-14.043 73.552-27.034 122.704-38.971v0-244.356c-42.13 2.809-82.505 11.761-121.125 26.858s-70.568 34.231-95.846 57.403v0l-38.971-82.154c27.385-25.278 64.073-46.168 110.065-62.669s94.618-26.156 145.876-28.965v0-119.018h67.408zM279.289 508.855c-43.535 11.235-76.888 25.278-100.059 42.13s-34.757 40.375-34.757 70.568c0 29.491 11.235 54.594 33.704 75.308s56.174 33.88 101.113 39.497v0-227.504zM346.697 165.493v226.45c45.641-12.639 80.574-27.209 104.799-43.71s36.337-40.199 36.337-71.095c0-30.193-11.761-55.296-35.284-75.308s-58.807-32.124-105.852-36.337v0z" />
<glyph unicode="&#xe90d;" glyph-name="dollar-three" horiz-adv-x="2136" d="M1107.383-44.105v119.018c79.345 6.32 139.908 28.789 181.687 67.408s62.669 85.665 62.669 141.136c0 44.939-11.41 80.925-34.231 107.959s-50.732 47.397-83.734 61.089c-33.002 13.692-75.132 26.858-126.391 39.497v0 245.409c62.493-3.511 122.178-23.172 179.054-58.982v0l34.757 84.261c-27.385 18.959-59.86 34.055-97.426 45.29s-76.361 17.554-116.385 18.959v0 119.018h-67.408v-120.071c-77.941-6.32-137.099-28.789-177.474-67.408s-60.562-85.665-60.562-141.136c0-44.237 11.059-80.048 33.178-107.432s49.503-48.099 82.154-62.142c32.651-14.043 73.552-27.034 122.704-38.971v0-244.356c-42.13 2.809-82.505 11.761-121.125 26.858s-70.568 34.231-95.846 57.403v0l-38.971-82.154c27.385-25.278 64.073-46.168 110.065-62.669s94.618-26.156 145.876-28.965v0-119.018h67.408zM1039.974 508.855c-43.535 11.235-76.888 25.278-100.059 42.13s-34.757 40.375-34.757 70.568c0 29.491 11.235 54.594 33.704 75.308s56.174 33.88 101.113 39.497v0-227.504zM1107.383 165.493v226.45c45.641-12.639 80.574-27.209 104.799-43.71s36.337-40.199 36.337-71.095c0-30.193-11.761-55.296-35.284-75.308s-58.807-32.124-105.852-36.337v0zM1868.069-44.105v119.018c79.345 6.32 139.908 28.789 181.687 67.408s62.669 85.665 62.669 141.136c0 44.939-11.41 80.925-34.231 107.959s-50.732 47.397-83.734 61.089c-33.002 13.692-75.132 26.858-126.391 39.497v0 245.409c62.493-3.511 122.178-23.172 179.054-58.982v0l34.757 84.261c-27.385 18.959-59.86 34.055-97.426 45.29s-76.361 17.554-116.385 18.959v0 119.018h-67.408v-120.071c-77.941-6.32-137.099-28.789-177.474-67.408s-60.562-85.665-60.562-141.136c0-44.237 11.059-80.048 33.178-107.432s49.503-48.099 82.154-62.142c32.651-14.043 73.552-27.034 122.704-38.971v0-244.356c-42.13 2.809-82.505 11.761-121.125 26.858s-70.568 34.231-95.846 57.403v0l-38.971-82.154c27.385-25.278 64.073-46.168 110.065-62.669s94.618-26.156 145.876-28.965v0-119.018h67.408zM1800.66 508.855c-43.535 11.235-76.888 25.278-100.059 42.13s-34.757 40.375-34.757 70.568c0 29.491 11.235 54.594 33.704 75.308s56.174 33.88 101.113 39.497v0-227.504zM1868.069 165.493v226.45c45.641-12.639 80.574-27.209 104.799-43.71s36.337-40.199 36.337-71.095c0-30.193-11.761-55.296-35.284-75.308s-58.807-32.124-105.852-36.337v0zM346.697-44.105v119.018c79.345 6.32 139.908 28.789 181.687 67.408s62.669 85.665 62.669 141.136c0 44.939-11.41 80.925-34.231 107.959s-50.732 47.397-83.734 61.089c-33.002 13.692-75.132 26.858-126.391 39.497v0 245.409c62.493-3.511 122.178-23.172 179.054-58.982v0l34.757 84.261c-27.385 18.959-59.86 34.055-97.426 45.29s-76.361 17.554-116.385 18.959v0 119.018h-67.408v-120.071c-77.941-6.32-137.099-28.789-177.474-67.408s-60.562-85.665-60.562-141.136c0-44.237 11.059-80.048 33.178-107.432s49.503-48.099 82.154-62.142c32.651-14.043 73.552-27.034 122.704-38.971v0-244.356c-42.13 2.809-82.505 11.761-121.125 26.858s-70.568 34.231-95.846 57.403v0l-38.971-82.154c27.385-25.278 64.073-46.168 110.065-62.669s94.618-26.156 145.876-28.965v0-119.018h67.408zM279.289 508.855c-43.535 11.235-76.888 25.278-100.059 42.13s-34.757 40.375-34.757 70.568c0 29.491 11.235 54.594 33.704 75.308s56.174 33.88 101.113 39.497v0-227.504zM346.697 165.493v226.45c45.641-12.639 80.574-27.209 104.799-43.71s36.337-40.199 36.337-71.095c0-30.193-11.761-55.296-35.284-75.308s-58.807-32.124-105.852-36.337v0z" />
<glyph unicode="&#xe90e;" glyph-name="dollar-four" horiz-adv-x="2896" d="M1107.383-44.105v119.018c79.345 6.32 139.908 28.789 181.687 67.408s62.669 85.665 62.669 141.136c0 44.939-11.41 80.925-34.231 107.959s-50.732 47.397-83.734 61.089c-33.002 13.692-75.132 26.858-126.391 39.497v0 245.409c62.493-3.511 122.178-23.172 179.054-58.982v0l34.757 84.261c-27.385 18.959-59.86 34.055-97.426 45.29s-76.361 17.554-116.385 18.959v0 119.018h-67.408v-120.071c-77.941-6.32-137.099-28.789-177.474-67.408s-60.562-85.665-60.562-141.136c0-44.237 11.059-80.048 33.178-107.432s49.503-48.099 82.154-62.142c32.651-14.043 73.552-27.034 122.704-38.971v0-244.356c-42.13 2.809-82.505 11.761-121.125 26.858s-70.568 34.231-95.846 57.403v0l-38.971-82.154c27.385-25.278 64.073-46.168 110.065-62.669s94.618-26.156 145.876-28.965v0-119.018h67.408zM1039.974 508.855c-43.535 11.235-76.888 25.278-100.059 42.13s-34.757 40.375-34.757 70.568c0 29.491 11.235 54.594 33.704 75.308s56.174 33.88 101.113 39.497v0-227.504zM1107.383 165.493v226.45c45.641-12.639 80.574-27.209 104.799-43.71s36.337-40.199 36.337-71.095c0-30.193-11.761-55.296-35.284-75.308s-58.807-32.124-105.852-36.337v0zM1868.069-44.105v119.018c79.345 6.32 139.908 28.789 181.687 67.408s62.669 85.665 62.669 141.136c0 44.939-11.41 80.925-34.231 107.959s-50.732 47.397-83.734 61.089c-33.002 13.692-75.132 26.858-126.391 39.497v0 245.409c62.493-3.511 122.178-23.172 179.054-58.982v0l34.757 84.261c-27.385 18.959-59.86 34.055-97.426 45.29s-76.361 17.554-116.385 18.959v0 119.018h-67.408v-120.071c-77.941-6.32-137.099-28.789-177.474-67.408s-60.562-85.665-60.562-141.136c0-44.237 11.059-80.048 33.178-107.432s49.503-48.099 82.154-62.142c32.651-14.043 73.552-27.034 122.704-38.971v0-244.356c-42.13 2.809-82.505 11.761-121.125 26.858s-70.568 34.231-95.846 57.403v0l-38.971-82.154c27.385-25.278 64.073-46.168 110.065-62.669s94.618-26.156 145.876-28.965v0-119.018h67.408zM1800.66 508.855c-43.535 11.235-76.888 25.278-100.059 42.13s-34.757 40.375-34.757 70.568c0 29.491 11.235 54.594 33.704 75.308s56.174 33.88 101.113 39.497v0-227.504zM1868.069 165.493v226.45c45.641-12.639 80.574-27.209 104.799-43.71s36.337-40.199 36.337-71.095c0-30.193-11.761-55.296-35.284-75.308s-58.807-32.124-105.852-36.337v0zM2628.754-44.105v119.018c79.345 6.32 139.908 28.789 181.687 67.408s62.669 85.665 62.669 141.136c0 44.939-11.41 80.925-34.231 107.959s-50.732 47.397-83.734 61.089c-33.002 13.692-75.132 26.858-126.391 39.497v0 245.409c62.493-3.511 122.178-23.172 179.054-58.982v0l34.757 84.261c-27.385 18.959-59.86 34.055-97.426 45.29s-76.361 17.554-116.385 18.959v0 119.018h-67.408v-120.071c-77.941-6.32-137.099-28.789-177.474-67.408s-60.562-85.665-60.562-141.136c0-44.237 11.059-80.048 33.178-107.432s49.503-48.099 82.154-62.142c32.651-14.043 73.552-27.034 122.704-38.971v0-244.356c-42.13 2.809-82.505 11.761-121.125 26.858s-70.568 34.231-95.846 57.403v0l-38.971-82.154c27.385-25.278 64.073-46.168 110.065-62.669s94.618-26.156 145.876-28.965v0-119.018h67.408zM2561.346 508.855c-43.535 11.235-76.888 25.278-100.059 42.13s-34.757 40.375-34.757 70.568c0 29.491 11.235 54.594 33.704 75.308s56.174 33.88 101.113 39.497v0-227.504zM2628.754 165.493v226.45c45.641-12.639 80.574-27.209 104.799-43.71s36.337-40.199 36.337-71.095c0-30.193-11.761-55.296-35.284-75.308s-58.807-32.124-105.852-36.337v0zM346.697-44.105v119.018c79.345 6.32 139.908 28.789 181.687 67.408s62.669 85.665 62.669 141.136c0 44.939-11.41 80.925-34.231 107.959s-50.732 47.397-83.734 61.089c-33.002 13.692-75.132 26.858-126.391 39.497v0 245.409c62.493-3.511 122.178-23.172 179.054-58.982v0l34.757 84.261c-27.385 18.959-59.86 34.055-97.426 45.29s-76.361 17.554-116.385 18.959v0 119.018h-67.408v-120.071c-77.941-6.32-137.099-28.789-177.474-67.408s-60.562-85.665-60.562-141.136c0-44.237 11.059-80.048 33.178-107.432s49.503-48.099 82.154-62.142c32.651-14.043 73.552-27.034 122.704-38.971v0-244.356c-42.13 2.809-82.505 11.761-121.125 26.858s-70.568 34.231-95.846 57.403v0l-38.971-82.154c27.385-25.278 64.073-46.168 110.065-62.669s94.618-26.156 145.876-28.965v0-119.018h67.408zM279.289 508.855c-43.535 11.235-76.888 25.278-100.059 42.13s-34.757 40.375-34.757 70.568c0 29.491 11.235 54.594 33.704 75.308s56.174 33.88 101.113 39.497v0-227.504zM346.697 165.493v226.45c45.641-12.639 80.574-27.209 104.799-43.71s36.337-40.199 36.337-71.095c0-30.193-11.761-55.296-35.284-75.308s-58.807-32.124-105.852-36.337v0z" />
<glyph unicode="&#xe90f;" glyph-name="budget-star" horiz-adv-x="724" d="M361.727 603.747c-86.114 0-156.172-70.059-156.172-156.172s70.059-156.172 156.172-156.172c86.114 0 156.172 70.059 156.172 156.172s-70.059 156.172-156.172 156.172v0zM361.727 305.997c-78.086 0-141.577 63.491-141.577 141.577s63.491 141.577 141.577 141.577c78.086 0 141.577-63.491 141.577-141.577s-63.491-141.577-141.577-141.577v0zM472.166 477.982c-0.851 2.676-3.162 4.622-5.838 4.987l-67.748 9.852-30.286 61.423c-1.216 2.433-3.771 4.014-6.568 4.014s-5.352-1.581-6.568-4.014l-30.286-61.423-67.748-9.852c-2.797-0.365-4.987-2.311-5.838-4.987s-0.122-5.595 1.824-7.541l49.017-47.8-11.555-67.504c-0.487-2.797 0.608-5.473 2.919-7.176 1.216-0.973 2.797-1.338 4.257-1.338 1.216 0 2.311 0.243 3.406 0.851l60.572 31.867 60.572-31.867c2.433-1.338 5.473-1.095 7.663 0.608 2.189 1.581 3.406 4.379 2.919 7.176l-11.555 67.504 49.017 47.8c1.946 1.824 2.676 4.744 1.824 7.419v0zM408.432 430.425c-1.703-1.703-2.554-4.135-2.068-6.446l9.73-56.679-50.841 26.759c-2.068 1.095-4.622 1.095-6.811 0l-50.841-26.759 9.73 56.679c0.365 2.311-0.365 4.744-2.068 6.446l-41.232 40.138 56.923 8.271c2.433 0.365 4.379 1.824 5.473 4.014l25.421 51.571 25.421-51.571c1.095-2.189 3.162-3.649 5.473-4.014l56.923-8.271-41.232-40.138z" />
<glyph unicode="&#xe910;" glyph-name="sunny" horiz-adv-x="1092" d="M182.044 299.355h-99.383c-45.635 0-82.661 37.029-82.661 82.581 0 45.623 36.959 82.581 82.661 82.581h106.285c-4.488 10.247-6.902 21.453-6.902 33.032 0 45.597 37.063 82.581 82.735 82.581h198.619c45.671 0 82.735-37.025 82.735-82.581 0-11.584-2.41-22.789-6.892-33.032h23.528c45.635 0 82.661-37.029 82.661-82.581 0-45.623-36.959-82.581-82.661-82.581h-82.833v-24.774c0-41.038-33.272-74.323-74.332-74.323h-58.064v-231.226h728.178c9.14 0 16.549-7.395 16.549-16.516s-7.409-16.516-16.549-16.516h-1059.168c-9.14 0-16.549 7.395-16.549 16.516s7.409 16.516 16.549 16.516h297.891v231.226h-58.064c-41.042 0-74.332 33.33-74.332 74.323v24.774zM446.836 299.355h-231.693v-24.774c0-22.773 18.495-41.29 41.233-41.29h149.227c22.763 0 41.233 18.478 41.233 41.29v24.774zM231.981 460.383c11.431-10.069 4.295-28.899-10.951-28.899h-138.368c-27.408 0-49.562-22.154-49.562-49.548 0-27.324 22.223-49.548 49.562-49.548h480.107c27.408 0 49.562 22.154 49.562 49.548 0 27.324-22.223 49.548-49.562 49.548h-55.605c-15.246 0-22.382 18.831-10.951 28.899 10.633 9.365 16.821 22.75 16.821 37.165 0 27.32-22.252 49.548-49.636 49.548h-198.619c-27.392 0-49.636-22.195-49.636-49.548 0-14.395 6.196-27.793 16.837-37.165zM761.277 481.032c-82.26 0-148.945 66.551-148.945 148.645s66.685 148.645 148.945 148.645c82.26 0 148.945-66.551 148.945-148.645s-66.685-148.645-148.945-148.645zM761.277 514.065c63.98 0 115.846 51.762 115.846 115.613s-51.866 115.613-115.846 115.613c-63.98 0-115.846-51.762-115.846-115.613s51.866-115.613 115.846-115.613zM744.727 943.484c0 9.122 7.409 16.516 16.549 16.516s16.549-7.395 16.549-16.516v-66.065c0-9.122-7.409-16.516-16.549-16.516s-16.549 7.395-16.549 16.516v66.065zM744.727 381.935c0 9.122 7.409 16.516 16.549 16.516s16.549-7.395 16.549-16.516v-66.065c0-9.122-7.409-16.516-16.549-16.516s-16.549 7.395-16.549 16.516v66.065zM1075.717 646.194c9.14 0 16.549-7.395 16.549-16.516s-7.409-16.516-16.549-16.516h-66.198c-9.14 0-16.549 7.395-16.549 16.516s7.409 16.516 16.549 16.516h66.198zM971.917 863.251c6.463 6.45 16.942 6.45 23.405 0s6.463-16.907 0-23.357l-46.809-46.715c-6.463-6.45-16.942-6.45-23.405 0s-6.463 16.907 0 23.357l46.809 46.715zM527.232 839.893c-6.463 6.45-6.463 16.907 0 23.357s16.942 6.45 23.405 0l46.809-46.715c6.463-6.45 6.463-16.907 0-23.357s-16.942-6.45-23.405 0l-46.809 46.715zM925.108 442.819c-6.463 6.45-6.463 16.907 0 23.357s16.942 6.45 23.405 0l46.809-46.715c6.463-6.45 6.463-16.907 0-23.357s-16.942-6.45-23.405 0l-46.809 46.715z" />
<glyph unicode="&#xe911;" glyph-name="conversation" d="M972.8 960h-324.267c-29.013 0-51.2-22.187-51.2-51.2v-157.013c0-5.12-1.707-8.533-5.12-11.947l-46.080-46.080v-40.96h426.667c29.013 0 51.2 22.187 51.2 51.2v204.8c0 29.013-22.187 51.2-51.2 51.2zM989.867 704c0-10.24-6.827-17.067-17.067-17.067h-385.707l29.013 29.013c10.24 10.24 15.36 22.187 15.36 35.84v157.013c0 10.24 6.827 17.067 17.067 17.067h324.267c10.24 0 17.067-6.827 17.067-17.067v-204.8zM954.027 251.733l-100.693 46.080c32.427 27.307 51.2 68.267 51.2 110.933v209.92h-204.8c-47.787 0-85.333-37.547-85.333-85.333v-124.587c0-42.667 18.773-83.627 51.2-110.933l-85.333-39.253v98.987c0 51.2-32.427 97.28-81.92 112.64l-122.88 40.96v39.253h52.907c47.787 0 85.333 37.547 85.333 85.333 0 5.12 0 11.947-1.707 17.067l-22.187 107.52c-20.48 100.693-119.467 163.84-220.16 143.36-71.68-15.36-128-71.68-143.36-143.36l-23.893-107.52c-10.24-46.080 20.48-92.16 66.56-100.693 5.12-1.707 11.947-1.707 17.067-1.707h52.907v-39.253l-122.88-40.96c-49.493-17.067-81.92-61.44-81.92-112.64v-216.747h-34.133v-204.8h460.8v34.133h-426.667v136.533h460.8v-170.667h529.067v206.507c0 47.787-27.307 90.453-69.973 109.227zM648.533 408.747v124.587c0 29.013 22.187 51.2 51.2 51.2h170.667v-175.787c0-61.44-49.493-110.933-110.933-110.933s-110.933 49.493-110.933 110.933zM250.88 625.493l-20.48 13.653c-5.12 3.413-6.827 8.533-6.827 13.653v95.573c22.187 11.947 49.493 10.24 71.68-1.707 29.013-17.067 66.56-20.48 97.28-6.827h1.707v-87.040c0-5.12-3.413-10.24-6.827-13.653l-20.48-13.653c-13.653-10.24-22.187-25.6-22.187-42.667v-66.56h-68.267v66.56c-3.413 17.067-11.947 34.133-25.6 42.667zM290.133 482.133v-25.6l-49.493-37.547-42.667 42.667 61.44 20.48h30.72zM324.267 482.133h30.72l61.44-20.48-42.667-42.667-49.493 37.547v25.6zM467.627 603.307c-10.24-11.947-23.893-18.773-39.253-18.773h-52.907c0 5.12 3.413 10.24 6.827 13.653l20.48 13.653c13.653 10.24 22.187 25.6 22.187 42.667v102.4l25.6 10.24c1.707-3.413 1.707-8.533 3.413-11.947l22.187-107.52c5.12-17.067 1.707-32.427-8.533-44.373zM307.2 874.667c54.613 0 104.107-29.013 131.413-76.8l-61.44-25.6c-22.187-8.533-46.080-6.827-66.56 5.12-34.133 20.48-75.093 20.48-109.227 1.707l-42.667-23.893v1.707c15.36 68.267 76.8 117.76 148.48 117.76zM146.773 603.307c-10.24 11.947-13.653 27.307-10.24 42.667l13.653 63.147 37.547 22.187v-76.8c0-17.067 8.533-32.427 22.187-42.667l20.48-13.653c5.12-3.413 6.827-8.533 6.827-13.653h-52.907c-13.653 0-27.307 6.827-37.547 18.773zM68.267 357.547c0 37.547 23.893 69.973 58.027 80.213l35.84 11.947 75.093-75.093 52.907 39.253v-273.067h-102.4v204.8h-34.133v-204.8h-85.333v216.747zM460.8 140.8v136.533h-34.133v-136.533h-102.4v273.067l52.907-39.253 75.093 75.093 35.84-11.947c34.133-11.947 58.027-44.373 58.027-80.213v-116.053c-32.427-22.187-51.2-58.027-51.2-97.28v-3.413h-34.133zM989.867-29.867h-460.8v172.373c0 34.133 18.773 63.147 49.493 78.507l121.173 54.613c37.547-17.067 80.213-17.067 116.053 0l121.173-54.613c30.72-13.653 49.493-44.373 49.493-78.507v-172.373h3.413zM221.867 55.467h170.667v-34.133h-170.667v34.133zM665.6 891.733h290.133v-34.133h-290.133v34.133zM665.6 823.467h290.133v-34.133h-290.133v34.133zM665.6 755.2h221.867v-34.133h-221.867v34.133zM358.4 345.6h102.4v-34.133h-102.4v34.133z" />
<glyph unicode="&#xe912;" glyph-name="checklist" horiz-adv-x="742" d="M667.901 960h-414.896c-3.84 0-7.55-1.39-10.443-3.914l-237.080-206.534c-3.438-3.121-5.424-7.53-5.482-12.173v-730.369c-0.212-35.045 27.98-63.65 63.024-63.946h604.878c35.044 0.297 63.236 28.902 63.024 63.947v889.045c0.212 35.045-27.98 63.65-63.024 63.947zM238.345 909.313v-130.035c0-21.522-9.008-25.844-23.544-25.844l-156.242 0.065 179.786 155.814zM699.148 7.009c0.228-17.501-13.746-31.889-31.247-32.167h-604.878c-17.5 0.279-31.475 14.666-31.247 32.167v714.647h183.025c34.642 0 55.323 21.542 55.323 57.623v148.942h397.777c17.5-0.279 31.475-14.666 31.247-32.167v-889.045zM238.345 642.207h-111.228c-17.543-0.020-31.759-14.236-31.779-31.779v-111.228c0.020-17.543 14.236-31.759 31.779-31.779h111.228c17.543 0.020 31.759 14.236 31.779 31.779v111.228c-0.020 17.543-14.236 31.759-31.779 31.779zM127.117 499.2v111.228h111.228l0.019-111.228h-111.247zM204.156 586.729l-36.365-31.228-7.041 5.513c-4.468 3.501-10.465 4.352-15.731 2.233s-9.001-6.887-9.799-12.507c-0.798-5.62 1.463-11.239 5.932-14.74l17.302-13.554c5.966-4.676 14.404-4.486 20.153 0.454l46.257 39.724c4.328 3.693 6.35 9.418 5.304 15.010s-5.003 10.198-10.373 12.076c-5.37 1.878-11.335 0.741-15.638-2.98v0zM238.345 435.641h-111.228c-17.543-0.020-31.759-14.236-31.779-31.779v-111.228c0.020-17.543 14.236-31.759 31.779-31.779h111.228c17.543 0.020 31.759 14.236 31.779 31.779v111.228c-0.020 17.543-14.236 31.759-31.779 31.779zM127.117 292.634v111.228h111.228l0.019-111.228h-111.247zM238.345 229.076h-111.228c-17.543-0.020-31.759-14.236-31.779-31.779v-111.228c0.020-17.543 14.236-31.759 31.779-31.779h111.228c17.543 0.020 31.759 14.236 31.779 31.779v111.228c-0.020 17.543-14.236 31.759-31.779 31.779zM127.117 86.069v111.228h111.228l0.019-111.228h-111.247zM204.156 173.598l-36.365-31.228-7.041 5.513c-6.907 5.412-16.894 4.2-22.306-2.708s-4.2-16.894 2.708-22.306l17.302-13.554c5.966-4.676 14.404-4.486 20.153 0.454l46.257 39.724c4.328 3.693 6.35 9.418 5.304 15.010s-5.003 10.198-10.373 12.076c-5.37 1.878-11.335 0.741-15.638-2.98v0zM217.8 383.317c-2.979 2.981-7.020 4.655-11.234 4.655s-8.255-1.675-11.234-4.655l-12.6-12.6-12.6 12.6c-6.208 6.184-16.251 6.175-22.448-0.021s-6.206-16.239-0.021-22.448l12.6-12.6-12.6-12.6c-4.016-4.013-5.585-9.864-4.116-15.349s5.752-9.768 11.237-11.237c5.484-1.469 11.335 0.1 15.349 4.116l12.6 12.6 12.6-12.6c6.208-6.184 16.251-6.175 22.448 0.021s6.206 16.239 0.021 22.448l-12.6 12.6 12.6 12.6c2.981 2.979 4.655 7.020 4.655 11.234s-1.675 8.255-4.655 11.234v0zM619.697 602.483h-270.124c-8.776 0-15.89-7.114-15.89-15.89s7.114-15.89 15.89-15.89h270.124c8.776 0 15.89 7.114 15.89 15.89s-7.114 15.89-15.89 15.89zM349.572 507.145h119.172c8.776 0 15.89 7.114 15.89 15.89s-7.114 15.89-15.89 15.89h-119.172c-8.776 0-15.89-7.114-15.89-15.89s7.114-15.89 15.89-15.89zM619.697 395.917h-270.124c-8.776 0-15.89-7.114-15.89-15.89s7.114-15.89 15.89-15.89h270.124c8.776 0 15.89 7.114 15.89 15.89s-7.114 15.89-15.89 15.89zM619.697 332.359h-270.124c-8.776 0-15.89-7.114-15.89-15.89s7.114-15.89 15.89-15.89h270.124c8.776 0 15.89 7.114 15.89 15.89s-7.114 15.89-15.89 15.89zM619.697 189.352h-270.124c-8.776 0-15.89-7.114-15.89-15.89s7.114-15.89 15.89-15.89h270.124c8.776 0 15.89 7.114 15.89 15.89s-7.114 15.89-15.89 15.89zM468.745 125.793h-119.172c-8.776 0-15.89-7.114-15.89-15.89s7.114-15.89 15.89-15.89h119.172c8.776 0 15.89 7.114 15.89 15.89s-7.114 15.89-15.89 15.89z" />
<glyph unicode="&#xe913;" glyph-name="add" d="M512 883.2c-240.377 0-435.2-194.806-435.2-435.2 0-240.377 194.806-435.2 435.2-435.2 240.377 0 435.2 194.806 435.2 435.2 0 240.377-194.806 435.2-435.2 435.2zM512 960c282.832 0 512-229.23 512-512 0-282.832-229.23-512-512-512-282.832 0-512 229.23-512 512 0 282.832 229.23 512 512 512zM714.362 479.695h-153.6v163.352c0 26.819-21.943 48.762-48.762 48.762s-48.762-21.943-48.762-48.762v-163.352h-146.286c-26.819 0-48.762-21.943-48.762-48.762s21.943-48.762 48.762-48.762h146.286v-146.286c0-26.819 21.943-48.762 48.762-48.762s48.762 21.943 48.762 48.762v146.286h153.6c26.819 0 48.762 21.943 48.762 48.762s-21.943 48.762-48.762 48.762z" />
<glyph unicode="&#xe914;" glyph-name="heart" horiz-adv-x="1109" d="M296.661 945.042c-72.577 0-145.458-29.729-200.229-88.686-109.542-117.91-109.41-305.772 0-423.771l437.486-472.229c5.538-5.991 13.327-9.398 21.486-9.398s15.947 3.407 21.486 9.398c146.037 157.199 292.363 314.112 438.4 471.315 109.542 117.909 109.54 306.313 0 424.228s-290.458 117.918-400 0l-59.429-64-59.429 64.457c-54.771 58.957-127.195 88.686-199.771 88.686v0zM296.661 887.899c56.471 0 112.687-23.83 156.8-71.314l81.371-87.314c5.527-5.843 13.215-9.153 21.257-9.153s15.73 3.31 21.257 9.153l80.914 86.857c88.226 94.971 225.833 94.969 314.057 0s88.224-249.265 0-344.229c-138.919-149.541-277.537-299.377-416.457-448.913l-416.457 449.371c-88.164 95.086-88.224 249.265 0 344.229 44.112 47.484 100.786 71.314 157.257 71.314v0z" />
<glyph unicode="&#xe915;" glyph-name="tip" d="M512 883.2c-240.377 0-435.2-194.806-435.2-435.2 0-240.377 194.806-435.2 435.2-435.2 240.377 0 435.2 194.806 435.2 435.2 0 240.377-194.806 435.2-435.2 435.2zM512 960c282.832 0 512-229.23 512-512 0-282.832-229.23-512-512-512-282.832 0-512 229.23-512 512 0 282.832 229.23 512 512 512zM537.6 345.6c0-21.208-17.192-38.4-38.4-38.4s-38.4 17.192-38.4 38.4v19.404c0 55.501 25.258 84.278 80.995 116.745-1.406-0.819 16.288 9.398 20.925 12.166 47.028 28.069 64.48 52.436 64.48 108.804 0 63.426-44.146 104.229-128 104.229-76.667 0-128-59.354-128-128 0-21.208-17.192-38.4-38.4-38.4s-38.4 17.192-38.4 38.4c0 108.785 83.041 204.8 204.8 204.8 124.977 0 204.8-73.776 204.8-181.029 0-86.977-33.705-134.036-101.92-174.75-5.199-3.103-23.487-13.663-21.629-12.581-34.467-20.077-42.851-29.63-42.851-50.383v-19.404zM496.64 140.8c-28.277 0-51.2 22.923-51.2 51.2s22.923 51.2 51.2 51.2c28.277 0 51.2-22.923 51.2-51.2s-22.923-51.2-51.2-51.2z" />
</font>
</defs>
</svg>
